BitTorrent клиенты



Ёжик, который совсем не ёжик (Алексей Игнатов) [2016, Россия, мультфильм, WEBRip-AVC]

Ответить на тему
 
Автор Сообщение

Alex ®

Пол: Не указан

Стаж: 1 год

Сообщений: 855

Создавать темы 06-Фев-2018 00:57

[Цитировать]

Ёжик, который совсем не ёжик
Страна: Россия
Жанр: мультфильм
Продолжительность: 00:05:18
Год выпуска: 2016
Режиссёр: Алексей Игнатов
Описание: Про маленького ёжика-фантазёра, который писал стихи и уверял, что он совсем не ёжик.
Качество: WEBRip-AVC
Формат: MP4
Видео: 1056 kbps, 1280х720 (16:9), 25.000 fps, AVC (Main@L3.1)
Аудио: 192 kbps, 44.1 kHz, 2 channels, AAC (LC)
Субтитры: отсутствуют

Подробные технические данные

General
Complete name : Ёжик, который совсем не ёжик (2016).mp4
Format : MPEG-4
Format profile : Base Media / Version 2
Codec ID : mp42
File size : 47.5 MiB
Duration : 5mn 18s
Overall bit rate mode : Variable
Overall bit rate : 1 251 Kbps
Encoded date : UTC 2017-04-22 07:14:13
Tagged date : UTC 2017-04-22 07:14:13
gsst : 0
gstd : 318740
Video
ID : 1
Format : AVC
Format/Info : Advanced Video Codec
Format profile : High@L3.1
Format settings, CABAC : Yes
Format settings, ReFrames : 1 frame
Format settings, GOP : M=1, N=60
Codec ID : avc1
Codec ID/Info : Advanced Video Coding
Duration : 5mn 18s
Bit rate : 1 056 Kbps
Maximum bit rate : 3 679 Kbps
Width : 1 280 pixels
Height : 720 pixels
Display aspect ratio : 16:9
Frame rate mode : Constant
Frame rate : 25.000 fps
Color space : YUV
Chroma subsampling : 4:2:0
Bit depth : 8 bits
Scan type : Progressive
Bits/(Pixel*Frame) : 0.046
Stream size : 40.1 MiB (84%)
Tagged date : UTC 2017-04-22 07:14:19
Color primaries : BT.709
Transfer characteristics : BT.709
Matrix coefficients : BT.709
Audio
ID : 2
Format : AAC
Format/Info : Advanced Audio Codec
Format profile : LC
Codec ID : 40
Duration : 5mn 18s
Bit rate mode : Variable
Bit rate : 192 Kbps
Maximum bit rate : 201 Kbps
Channel(s) : 2 channels
Channel positions : Front: L R
Sampling rate : 44.1 KHz
Compression mode : Lossy
Stream size : 7.29 MiB (15%)
Title : IsoMedia File Produced by Google, 5-11-2011
Language : English
Encoded date : UTC 2017-04-22 07:14:16
Tagged date : UTC 2017-04-22 07:14:19

Скриншоты

[Профиль] [ЛС]
Показать сообщения:    
Ответить на тему

Текущее время: 22-Фев 23:59

Часовой пояс: UTC + 3



Вы не можете начинать темы
Вы не можете отвечать на сообщения
Вы не можете редактировать свои сообщения
Вы не можете удалять свои сообщения
Вы не можете голосовать в опросах
Вы не можете прикреплять файлы к сообщениям
Вы можете скачивать файлы