BitTorrent клиенты



Человек № 217 (Михаил Ромм) [1944, военный, драма, SATRip-AVC]

Ответить на тему
 
Автор Сообщение

JetGun ®

Пол: Не указан

Стаж: 1 год

Сообщений: 437

Создавать темы 06-Фев-2018 00:57

[Цитировать]

Человек № 217
Жанр: военный, драма
Студия: Ташкентская киностудия, Мосфильм
Год производства: 1944
Премьера: 9 апреля 1945
Продолжительность: 01:39:49
Режиссёр: Михаил Ромм
В ролях: Елена Кузьмина, Анна Лисянская, Василий Зайчиков, Николай Комиссаров, Григорий Михайлов, Владимир Владиславский, Татьяна Барышева, Лидия Сухаревская, Павел Суханов, Генрих Грайф, Владимир Балашов...
Описание: 1942 год. В небольшой немецкий городок прибывает очередная партия советских людей, насильно угнанных фашистами из оккупированных районов страны. У них нет фамилий, нет имен, каждому присвоен лишь порядковый номер. № 217 - русская девушка Таня - попадает в семью бакалейщика, у которого дворником работает советский ученый-математик.
Доп. информация: Исходник: http://rutracker.org/forum/viewtopic.php?t=5488039
Семпл: https://www.sendspace.com/file/ev5qrf
Качество видео: SATRip
Формат видео: MKV
Видео: 696x512 (4:3), 4:2:0, 25,000 fps, AVC ~939 Kbps avg, ~ 0.105/pixel
Аудио: 48.0 kHz, AAC, 2/0 (L,R) ch, ~40 kbps

MediaInfo

Человек №217 (СССР.1944-45) SATrip.mkv
Формат : Matroska
Версия формата : Version 4 / Version 2
Размер файла : 700 Мбайт
Продолжительность : 1 ч. 39 м.
Общий поток : 980 Кбит/сек
Дата кодирования : UTC 2017-12-11 15:04:06
Программа кодирования : mkvmerge v16.0.0 ('Protest') 64-bit
Библиотека кодирования : libebml v1.3.5 + libmatroska v1.4.8
Видео
Идентификатор : 1
Формат : AVC
Формат/Информация : Advanced Video Codec
Профиль формата : High@L4.1
Параметр CABAC формата : Да
Параметр ReFrames формата : 16 кадров
Идентификатор кодека : V_MPEG4/ISO/AVC
Продолжительность : 1 ч. 39 м.
Битрейт : 939 Кбит/сек
Ширина : 696 пикселей
Высота : 512 пикселей
Соотношение сторон : 4:3
Режим частоты кадров : Постоянный
Частота кадров : 25,000 кадров/сек
Цветовое пространство : YUV
Субдискретизация насыщенности : 4:2:0
Битовая глубина : 8 бит
Тип развёртки : Прогрессивная
Бит/(Пиксели*Кадры) : 0.105
Размер потока : 670 Мбайт (96%)
Библиотека кодирования : x264 core 152 r2851 ba24899
Настройки программы : cabac=1 / ref=16 / deblock=1:-3:-3 / analyse=0x3:0x133 / me=umh / subme=10 / psy=1 / psy_rd=1.05:0.10 / mixed_ref=1 / me_range=32 / chroma_me=1 / trellis=2 / 8x8dct=1 / cqm=0 / deadzone=21,11 / fast_pskip=0 / chroma_qp_offset=-3 / threads=12 / lookahead_threads=3 / sliced_threads=0 / nr=0 / decimate=0 / interlaced=0 / bluray_compat=0 / constrained_intra=0 / bframes=14 / b_pyramid=2 / b_adapt=2 / b_bias=0 / direct=3 / weightb=1 / open_gop=0 / weightp=2 / keyint=250 / keyint_min=25 / scenecut=40 / intra_refresh=0 / rc_lookahead=60 / rc=2pass / mbtree=1 / bitrate=939 / ratetol=1.0 / qcomp=0.80 / qpmin=0 / qpmax=69 / qpstep=4 / cplxblur=20.0 / qblur=0.5 / vbv_maxrate=62500 / vbv_bufsize=78125 / nal_hrd=none / filler=0 / ip_ratio=1.40 / aq=1:1.00
Default : Да
Forced : Нет
Аудио
Идентификатор : 2
Формат : AAC
Формат/Информация : Advanced Audio Codec
Профиль формата : HE-AAC / LC
Идентификатор кодека : A_AAC
Продолжительность : 1 ч. 39 м.
Битрейт : 39,5 Кбит/сек
Каналы : 2 канала
Расположение каналов : Front: L R
Частота : 48,0 КГц / 24,0 КГц
Частота кадров : 23,438 кадра/сек (1024 spf)
Метод сжатия : С потерями
Задержка видео : 303 мс.
Размер потока : 28,2 Мбайт (4%)
Язык : Russian
Default : Да
Forced : Нет
[Профиль] [ЛС]
Показать сообщения:    
Ответить на тему

Текущее время: 19-Фев 16:25

Часовой пояс: UTC + 3



Вы не можете начинать темы
Вы не можете отвечать на сообщения
Вы не можете редактировать свои сообщения
Вы не можете удалять свои сообщения
Вы не можете голосовать в опросах
Вы не можете прикреплять файлы к сообщениям
Вы можете скачивать файлы