BitTorrent клиенты



Всем - спасибо!.. (Инесса Селезнёва) [1981, мелодрама, DVB-AVC]

Ответить на тему
 
Автор Сообщение

JetGun ®

Пол: Не указан

Стаж: 1 год

Сообщений: 437

Создавать темы 06-Фев-2018 00:57

[Цитировать]

Всем - спасибо!..
Жанр: мелодрама
Год выпуска: 1981
Продолжительность: 01:31:54
Режиссёр: Инесса Селезнёва
В ролях: Елена Соловей, Сергей Шакуров, Александр Парра, Мария Стерникова, Наталья Вилькина, Эрнст Романов, Владимир Качан, Михаил Данилов, Станислав Садальский, Елена Сафонова, Юрий Демич, Галина Гладкова, Олег Вавилов, Пётр Пророков
Описание: Молодой математик Дмитрий тяжело переживает уход жены. Случайно попав на съемки фильма, герой вдруг начинает понимать, что в основе сюжета лежат воспоминания его бывшей супруги.-Доп. информация: запись с IPTV в Беларуси, ремукс записи потока *.ts в *.mkv программой VideoReDo.
Производство: ТО "Экран"
Сценарий: Борис Золотарев
Оператор: Евгений Анисимов
Художник: Пётр Пророков
Композитор: Владимир Дашкевич
Семпл: http://sendfile.su/1381824
Качество видео: DVB
Формат видео: MKV
Видео: AVC (H264), 720x576@785x576 (4:3), анаморф, 25 fps, 2004 kbps
Аудио: MP2, 192 kbps, 2 channels, 48 kHz

MediaInfo

General
Unique ID : 255040474255464796801208375787906191343 (0xBFDF02363A020E3130A5A1A53354CFEF)
Complete name : D:\Work\Video\Всем - спасибо!...mkv
Format : Matroska
Format version : Version 2
File size : 1.44 GiB
Duration : 1 h 31 min
Overall bit rate : 2 240 kb/s
Writing application : Lavf54.63.104
Writing library : Lavf54.63.104
Video
ID : 1
Format : AVC
Format/Info : Advanced Video Codec
Format profile : High@L3
Format settings, CABAC : Yes
Format settings, ReFrames : 4 frames
Format settings, GOP : M=4, N=28
Codec ID : V_MPEG4/ISO/AVC
Duration : 1 h 31 min
Bit rate : 2 004 kb/s
Width : 720 pixels
Height : 576 pixels
Display aspect ratio : 4:3
Original display aspect ratio : 4:3
Frame rate mode : Constant
Frame rate : 25.000 FPS
Standard : Component
Color space : YUV
Chroma subsampling : 4:2:0
Bit depth : 8 bits
Scan type : Interlaced
Scan type, store method : Separated fields
Scan order : Top Field First
Bits/(Pixel*Frame) : 0.193
Stream size : 1.29 GiB (89%)
Default : No
Forced : No
Color range : Limited
Color primaries : BT.601 PAL
Transfer characteristics : BT.470 System B, BT.470 System G
Matrix coefficients : BT.601
Audio
ID : 2
Format : MPEG Audio
Format version : Version 1
Format profile : Layer 2
Codec ID : A_MPEG/L2
Codec ID/Hint : MP2
Duration : 1 h 31 min
Bit rate mode : Constant
Bit rate : 192 kb/s
Channel(s) : 2 channels
Sampling rate : 48.0 kHz
Compression mode : Lossy
Stream size : 126 MiB (9%)
Language : Russian
Default : Yes
Forced : No
[Профиль] [ЛС]
Показать сообщения:    
Ответить на тему

Текущее время: 23-Фев 00:29

Часовой пояс: UTC + 3



Вы не можете начинать темы
Вы не можете отвечать на сообщения
Вы не можете редактировать свои сообщения
Вы не можете удалять свои сообщения
Вы не можете голосовать в опросах
Вы не можете прикреплять файлы к сообщениям
Вы можете скачивать файлы