BitTorrent клиенты



Человек № 217 (Михаил Ромм) [1944 (1945), военный, драма, DVB]

Ответить на тему
 
Автор Сообщение

JetGun ®

Пол: Не указан

Стаж: 1 год

Сообщений: 437

Создавать темы 06-Фев-2018 00:57

[Цитировать]

Человек № 217- Страна: СССР
Студия: Ташкентская киностудия, Мосфильм
Жанр: военный, драма
Год производства: 1944
Премьера: 9 апреля 1945
Продолжительность: 01:39:48-Режиссёр: Михаил Ромм
В ролях: Елена Кузьмина, Анна Лисянская, Василий Зайчиков, Николай Комиссаров, Григорий Михайлов, Владимир Владиславский, Татьяна Барышева, Лидия Сухаревская, Павел Суханов, Генрих Грайф, Владимир Балашов...-Описание: 1942 год. В небольшой немецкий городок прибывает очередная партия советских людей, насильно угнанных фашистами из оккупированных районов страны. У них нет фамилий, нет имен, каждому присвоен лишь порядковый номер. № 217 - русская девушка Таня - попадает в семью бакалейщика, у которого дворником работает советский ученый-математик.-Релиз: -Семпл: http://sendfile.su/1381764-Качество: DVB
Формат: TS
Видео: 720x576 (4:3) @ 786x576, 25.000 fps, AVC, ~1474 Kbps, 0.142 bits/pixel
Аудио: Русский, 48.0 KHz, MPEG-1 Audio layer 2, 2 ch, 192 Kbps

MediaInfo

General
ID : 1 (0x1)
Complete name : Человек № 217 Культура.ts
Format : MPEG-TS
File size : 1.22 GiB
Duration : 1 h 39 min
Overall bit rate mode : Variable
Overall bit rate : 1 755 kb/s
Video
ID : 205 (0xCD)
Menu ID : 1 (0x1)
Format : AVC
Format/Info : Advanced Video Codec
Format profile : High@L3
Format settings : CABAC / 4 Ref Frames
Format settings, CABAC : Yes
Format settings, RefFrames : 4 frames
Codec ID : 27
Duration : 1 h 39 min
Bit rate : 1 474 kb/s
Width : 720 pixels
Height : 576 pixels
Display aspect ratio : 4:3
Frame rate : 25.000 FPS
Standard : Component
Color space : YUV
Chroma subsampling : 4:2:0
Bit depth : 8 bits
Scan type : Interlaced
Scan type, store method : Separated fields
Scan order : Top Field First
Bits/(Pixel*Frame) : 0.142
Stream size : 1.03 GiB (84%)
Color range : Limited
Color primaries : BT.601 PAL
Transfer characteristics : BT.470 System B, BT.470 System G
Matrix coefficients : BT.470 System B, BT.470 System G
Audio
ID : 305 (0x131)
Menu ID : 1 (0x1)
Format : MPEG Audio
Format version : Version 1
Format profile : Layer 2
Codec ID : 3
Duration : 1 h 39 min
Bit rate mode : Constant
Bit rate : 192 kb/s
Channel(s) : 2 channels
Sampling rate : 48.0 kHz
Compression mode : Lossy
Delay relative to video : -40 ms
Stream size : 137 MiB (11%)
Language : Russian
Text
ID : 505 (0x1F9)-888
Menu ID : 1 (0x1)
Format : Teletext Subtitle
Language : Russian
Language, more info : For hearing impaired people

Скриншоты

Сравнение с DVD "Мастер Тэйп"

DVD "Мастер Тэйп"- -Культура-
[Профиль] [ЛС]
Показать сообщения:    
Ответить на тему

Текущее время: 20-Фев 06:54

Часовой пояс: UTC + 3



Вы не можете начинать темы
Вы не можете отвечать на сообщения
Вы не можете редактировать свои сообщения
Вы не можете удалять свои сообщения
Вы не можете голосовать в опросах
Вы не можете прикреплять файлы к сообщениям
Вы можете скачивать файлы