BitTorrent клиенты



Ради любимой / Я ещё и бандит / Naanum Rowdy Dhaan (Вигнеш Шиван / Vignesh Shivan) [2015, Индия, Комедия, драма, HDRip] MVO (SDI Media) + Sub Rus (песни)

Ответить на тему
 
Автор Сообщение

Alex ®

Пол: Не указан

Стаж: 1 год

Сообщений: 855

Создавать темы 06-Фев-2018 00:58

[Цитировать]

Ради любимой / Я ещё и бандит / Naanum Rowdy Dhaan
-Страна: Индия
Жанр: Комедия
Год выпуска: 2015
Продолжительность: 02:19:28-Перевод: Профессиональный (многоголосый закадровый) - SDI Media (т/к Индия ТВ)
Субтитры: Есть (песни) - Sima Kivi--Режиссер: Вигнеш Шиван / Vignesh Shivan-В ролях: Виджай Сетхупати, Наянтара, Партибан, Радхика, Р. Дж. Баладжи и др.--Описание: Извечный вопрос "Кто же круче? Полицейский или бандит?" с детства мучает мальчика Панди. Чтобы угодить своей маме, он поступает в полицейскую академию, параллельно открыв с друзьями маленький "бандитский" офис, в котором принимал заказы на расправу с мелкими хулиганами или устрашение непутёвых школьников. Но однажды в его контору обратилась девушка с весьма серьёзной просьбой... (с) Ма-Рати--IMDb | Кинопоиск--Качество видео: HDRip
Формат видео: AVI-Видео: 720x304 (2.37:1), 24.000 fps, XviD build 50 ~1352 kbps avg, 0.26 bit/pixel
Аудио: 48 kHz, MPEG Layer 3, 2 ch, ~128.00 kbps--Сэмпл / Sample--Релиз и Deepavali
Запись с канала: василисса (спасибо!)
Перевод песен: Sima Kivi (спасибо!)
Рип, синхрон. звука: soso4eg-- --

Скриншот с названием

-

Скриншоты

-

MI

General
Complete name : C:\_ИНДИЯ\Ya.Eshyo.I.Bandit.2015.P.HDRip.XviD.BwTorrents.Deepavali\Ya.Eshyo.I.Bandit.2015.P.HDRip.XviD.BwTorrents.Deepavali.avi
Format : AVI
Format/Info : Audio Video Interleave
File size : 1.45 GiB
Duration : 2h 19mn
Overall bit rate : 1 490 Kbps
Movie name : Ya.Eshyo.I.Bandit.2015.P.HDRip.XviD.BwTorrents.Deepavali
Writing application : VirtualDubMod 1.6.0.0 SURROUND (build 2560/release)
Video
ID : 0
Format : MPEG-4 Visual
Format profile : Advanced Simple@L5
Format settings, BVOP : 2
Format settings, QPel : No
Format settings, GMC : No warppoints
Format settings, Matrix : Default (H.263)
Codec ID : XVID
Codec ID/Hint : XviD
Duration : 2h 19mn
Bit rate : 1 352 Kbps
Width : 720 pixels
Height : 304 pixels
Display aspect ratio : 2.35:1
Frame rate : 24.000 fps
Color space : YUV
Chroma subsampling : 4:2:0
Bit depth : 8 bits
Scan type : Progressive
Compression mode : Lossy
Bits/(Pixel*Frame) : 0.257
Stream size : 1.32 GiB (91%)
Writing library : XviD 1.2.1 (UTC 2008-12-04)
Audio
ID : 1
Format : MPEG Audio
Format version : Version 1
Format profile : Layer 3
Mode : Joint stereo
Mode extension : MS Stereo
Codec ID : 55
Codec ID/Hint : MP3
Duration : 2h 19mn
Bit rate mode : Constant
Bit rate : 128 Kbps
Channel(s) : 2 channels
Sampling rate : 48.0 KHz
Compression mode : Lossy
Stream size : 128 MiB (9%)
Alignment : Aligned on interleaves
Interleave, duration : 42 ms (1.00 video frame)
Interleave, preload duratio : 504 ms
[Профиль] [ЛС]
Показать сообщения:    
Ответить на тему

Текущее время: 21-Фев 23:37

Часовой пояс: UTC + 3



Вы не можете начинать темы
Вы не можете отвечать на сообщения
Вы не можете редактировать свои сообщения
Вы не можете удалять свои сообщения
Вы не можете голосовать в опросах
Вы не можете прикреплять файлы к сообщениям
Вы можете скачивать файлы