BitTorrent клиенты



Воображение / Шёпот сердца / Oohalu Gusagusalade (Шринивас Авасарала / Srinivas Avasarala) [2014, Индия, Романтическая комедия, HDRip] MVO (SDI Media) + Sub Rus (песни)

Ответить на тему
 
Автор Сообщение

Alex ®

Пол: Не указан

Стаж: 1 год

Сообщений: 855

Создавать темы 06-Фев-2018 00:58

[Цитировать]

Воображение / Шёпот сердца / Oohalu Gusagusalade
-Страна: Индия
Жанр: Комедия
Год выпуска: 2014
Продолжительность: 02:05:51-Перевод: Профессиональный (многоголосый закадровый) - SDI Media (т/к Индия ТВ)
Субтитры: Есть (песни) - diamante--Режиссер: Шринивас Авасарала / Srinivas Avasarala-В ролях: Нага Шорья, Раши Кханна, Шринивас Авасарала--Описание: Венки, стремясь к своей мечте, стать ведущим теленовостей, соглашается помочь своему боссу Удаю добиться Прабхи, на которой тот собирается жениться. Проблемы Венки начинаются, когда он узнает, что Прабха его бывшая девушка, которую он любит и по сей день... (с) Ма-Рати--IMDb | Кинопоиск--Качество видео: HDRip
Формат видео: AVI-Видео: 720x304 (2.37:1), 25 fps, XviD build 50 ~1512 kbps avg, 0.28 bit/pixel
Аудио: 48 kHz, MPEG Layer 3, 2 ch, ~128.00 kbps--Сэмпл / Sample--Релиз и Deepavali
Запись с канала: василисса (спасибо!)
Редакция, тайминг: Ратюся (спасибо!)
Перевод песен: diamante (спасибо!)
Рип, синхрон. звука: soso4eg-- --

Скриншот с названием

-

Скриншоты





-

MI

General
Complete name : H:\[ИНДИЯ]\Oohalu.Gusagusalade.2014.P.HDRip.XviD.BwTorrents\Oohalu.Gusagusalade.2014.P.HDRip.XviD.BwTorrents.avi
Format : AVI
Format/Info : Audio Video Interleave
File size : 1.45 GiB
Duration : 2h 5mn
Overall bit rate : 1 651 Kbps
Movie name : Oohalu.Gusagusalade.2014.P.HDRip.XviD.BwTorrents
Writing application : VirtualDubMod 1.6.0.0 SURROUND (build 2560/release)
Video
ID : 0
Format : MPEG-4 Visual
Format profile : Advanced Simple@L5
Format settings, BVOP : 1
Format settings, QPel : No
Format settings, GMC : No warppoints
Format settings, Matrix : Default (H.263)
Codec ID : XVID
Codec ID/Hint : XviD
Duration : 2h 5mn
Bit rate : 1 513 Kbps
Width : 720 pixels
Height : 304 pixels
Display aspect ratio : 2.35:1
Frame rate : 25.000 fps
Color space : YUV
Chroma subsampling : 4:2:0
Bit depth : 8 bits
Scan type : Progressive
Compression mode : Lossy
Bits/(Pixel*Frame) : 0.276
Stream size : 1.33 GiB (92%)
Writing library : XviD 1.2.1 (UTC 2008-12-04)
Audio
ID : 1
Format : MPEG Audio
Format version : Version 1
Format profile : Layer 3
Mode : Joint stereo
Codec ID : 55
Codec ID/Hint : MP3
Duration : 2h 5mn
Bit rate mode : Constant
Bit rate : 128 Kbps
Channel(s) : 2 channels
Sampling rate : 48.0 KHz
Compression mode : Lossy
Stream size : 115 MiB (8%)
Alignment : Aligned on interleaves
Interleave, duration : 40 ms (1.00 video frame)
Interleave, preload duratio : 504 ms
-
[Профиль] [ЛС]
Показать сообщения:    
Ответить на тему

Текущее время: 19-Фев 16:54

Часовой пояс: UTC + 3



Вы не можете начинать темы
Вы не можете отвечать на сообщения
Вы не можете редактировать свои сообщения
Вы не можете удалять свои сообщения
Вы не можете голосовать в опросах
Вы не можете прикреплять файлы к сообщениям
Вы можете скачивать файлы