BitTorrent клиенты



Колыбельная Цейлона (Елизавета Скворцова) [2009, Россия, музыкальный мультфильм, WEBRip] из цикла "Колыбельные Мира"

Ответить на тему
 
Автор Сообщение

Alex ®

Пол: Не указан

Стаж: 1 год

Сообщений: 855

Создавать темы 06-Фев-2018 00:58

[Цитировать]

Колыбельная Цейлона
Страна: Россия
Жанр: музыкальный мультфильм
Продолжительность: 00:04:06
Год выпуска: 2009
Режиссёр: Елизавета Скворцова
Описание: Цейлонская колыбельная песня.
Перед началом дети рассказывают про остров Цейлон.
Качество: WEBRip
Формат: AVI
Видео: 1793 kbps, 608х480 (5:4), 25.000 fps, MPEG-4 Visual (XviD)
Аудио: 128 kbps, 44.1 kHz, 2 channels, MPEG Audio (MP3)
Субтитры: отсутствуют

Подробные технические данные

General
Complete name : Колыбельная Цейлона.avi
Format : AVI
Format/Info : Audio Video Interleave
File size : 56.7 MiB
Duration : 4mn 6s
Overall bit rate : 1 932 Kbps
Writing application : VirtualDubMod 1.5.10.2 (build 2540/release)
Writing library : VirtualDubMod build 2540/release
Video
ID : 0
Format : MPEG-4 Visual
Format profile : Advanced Simple@L4
Format settings, BVOP : 2
Format settings, QPel : No
Format settings, GMC : No warppoints
Format settings, Matrix : Default (H.263)
Codec ID : XVID
Codec ID/Hint : XviD
Duration : 4mn 6s
Bit rate : 1 793 Kbps
Width : 608 pixels
Height : 480 pixels
Display aspect ratio : 5:4
Frame rate : 25.000 fps
Color space : YUV
Chroma subsampling : 4:2:0
Bit depth : 8 bits
Scan type : Progressive
Compression mode : Lossy
Bits/(Pixel*Frame) : 0.246
Stream size : 52.6 MiB (93%)
Writing library : XviD 64
Audio
ID : 1
Format : MPEG Audio
Format version : Version 1
Format profile : Layer 3
Codec ID : 55
Codec ID/Hint : MP3
Duration : 4mn 6s
Bit rate mode : Constant
Bit rate : 128 Kbps
Channel(s) : 2 channels
Sampling rate : 44.1 KHz
Compression mode : Lossy
Stream size : 3.76 MiB (7%)
Alignment : Split accross interleaves
Interleave, duration : 40 ms (1.00 video frame)
Interleave, preload duration : 500 ms

Скриншоты

Другие раздачи этого цикла

Азербайджанская колыбельная - http://rutracker.org/forum/viewtopic.php?t=5466406
Английская колыбельная - http://rutracker.org/forum/viewtopic.php?t=5290418
Аргентинская колыбельная - http://rutracker.org/forum/viewtopic.php?t=5283872
Белорусская колыбельная - http://rutracker.org/forum/viewtopic.php?t=5423573
Бразильская колыбельная - http://rutracker.org/forum/viewtopic.php?t=5457126
Венгерская колыбельная - http://rutracker.org/forum/viewtopic.php?t=5330237
Голландская колыбельная - http://rutracker.org/forum/viewtopic.php?t=5359662
Грузинская колыбельная - http://rutracker.org/forum/viewtopic.php?t=5407932
Датская колыбельная - http://rutracker.org/forum/viewtopic.php?t=5287128
Ирландская колыбельная - http://rutracker.org/forum/viewtopic.php?t=5373981
Казахская колыбельная - http://rutracker.org/forum/viewtopic.php?t=5345314
Китайская колыбельная - http://rutracker.org/forum/viewtopic.php?t=5392616
Колыбельная Датогов - http://rutracker.org/forum/viewtopic.php?t=5371247
Колыбельная Конго - http://rutracker.org/forum/viewtopic.php?t=5320705
Колыбельная королевства Тонга - http://rutracker.org/forum/viewtopic.php?t=5479330
Колыбельная Маори - http://rutracker.org/forum/viewtopic.php?t=5475728
Кубинская колыбельная - http://rutracker.org/forum/viewtopic.php?t=5482235
Лапландская колыбельная - http://rutracker.org/forum/viewtopic.php?t=5327598
Латышская колыбельная - http://rutracker.org/forum/viewtopic.php?t=5310606
Литовская колыбельная - http://rutracker.org/forum/viewtopic.php?t=5293936
Мексиканская колыбельная - http://rutracker.org/forum/viewtopic.php?t=5304019
Непальская колыбельная - http://rutracker.org/forum/viewtopic.php?t=5463398
Норвежская колыбельная - http://rutracker.org/forum/viewtopic.php?t=5356069
Осетинская колыбельная - http://rutracker.org/forum/viewtopic.php?t=5454163
Пакистанская колыбельная - http://rutracker.org/forum/viewtopic.php?t=5396070
Польская колыбельная - http://rutracker.org/forum/viewtopic.php?t=5378618
Португальская колыбельная - http://rutracker.org/forum/viewtopic.php?t=5280572
Русская колыбельная - http://rutracker.org/forum/viewtopic.php?t=5415375
Сефардская колыбельная - http://rutracker.org/forum/viewtopic.php?t=5297402
Сицилийская колыбельная - http://rutracker.org/forum/viewtopic.php?t=5460400
Татарская колыбельная - http://rutracker.org/forum/viewtopic.php?t=5363622
Туркменская колыбельная - http://rutracker.org/forum/viewtopic.php?t=5472270
Хорватская колыбельная - http://rutracker.org/forum/viewtopic.php?t=5300833
Швейцарская колыбельная - http://rutracker.org/forum/viewtopic.php?t=5337504
Эвенкийская колыбельная - http://rutracker.org/forum/viewtopic.php?t=5341745
Эстонская колыбельная - http://rutracker.org/forum/viewtopic.php?t=5317197
[Профиль] [ЛС]
Показать сообщения:    
Ответить на тему

Текущее время: 23-Фев 00:08

Часовой пояс: UTC + 3



Вы не можете начинать темы
Вы не можете отвечать на сообщения
Вы не можете редактировать свои сообщения
Вы не можете удалять свои сообщения
Вы не можете голосовать в опросах
Вы не можете прикреплять файлы к сообщениям
Вы можете скачивать файлы