BitTorrent клиенты



Проказники / Mastizaade (Милап Завери / Milap Zaveri) [2016, Индия, Комедия, DVDRip] MVO (т/к Индия ТВ) + DVO (Ульпаней Эльром)

Ответить на тему
 
Автор Сообщение

Alex ®

Пол: Не указан

Стаж: 1 год

Сообщений: 855

Создавать темы 06-Фев-2018 00:58

[Цитировать]

Проказники/ Mastizaade- Страна: Индия
Жанр: Kомедия
Год выпуска: 2016
Продолжительность: 01:46:38-Перевод: Профессиональный (многоголосый закадровый) т/к Индия ТВ
Перевод: Профессиональный (двухголосый закадровый) Ульпаней Эльром
Субтитры: нет-Режиссер: Милап Завери / Milap Zaveri-В ролях: Санни Леоне, Тусшар Капур, Вир Дас, Говардан Асрани, Шаад Рандхава, Суреш Менон, Сушмита Макхерджи, Ритеш Дешмукх, Вивек Васвани, Каран Девани, Куруш Дебу, Муниш Макхиджа, Бхупеш Сони, Мохит Кумар, Притеш Садха, Бруна Абдалах-Описание: Сестры-близняшки Лили и Лэйла открывают центр реабилитации эротоманов. В этом центре они знакомятся с Санни и Адитьей, которые влюбляются в веселых сестер. Но Лили уже влюблена в Дешпреми, и они собираются пожениться...-Доп. информация: Ограничение (+16)
-Сэмпл: http://multi-up.com/1177595
Качество видео: DVDRip
Формат видео: AVI
Видео: 720x304 (2.35:1), 23.976 fps, XviD, 1709 Kbps, 0.32 bit/pixel
Аудио: MP3, 44.1 KHz, 2 ch, 128 kbps / т/к Индия ТВ
Аудио: MP3, 44.1 KHz, 2 ch, 128 kbps / Ульпаней Эльром-Релиз-группа:
Запись, сведение звука, рип: василисса-

MediaInfo

General
Complete name : Downloads\Prokazniki.2016.DVDRip.XviD.BwTorrents.avi
Format : AVI
Format/Info : Audio Video Interleave
File size : 1.47 GiB
Duration : 1h 46mn
Overall bit rate : 1 979 Kbps
Writing application : VirtualDubMod 1.5.10.2 (build 2540/release)
Writing library : VirtualDubMod build 2540/release
Video #0
ID : 0
Format : MPEG-4 Visual
Format profile : Advanced Simple@L5
Format settings, BVOP : 2
Format settings, QPel : No
Format settings, GMC : No warppoints
Format settings, Matrix : Default (MPEG)
Codec ID : XVID
Codec ID/Hint : XviD
Duration : 1h 46mn
Bit rate : 1 709 Kbps
Width : 720 pixels
Height : 304 pixels
Display aspect ratio : 2.35:1
Frame rate : 23.976 fps
Color space : YUV
Chroma subsampling : 4:2:0
Bit depth : 8 bits
Scan type : Progressive
Compression mode : Lossy
Bits/(Pixel*Frame) : 0.326
Stream size : 1.27 GiB (86%)
Writing library : XviD 1.2.1 (UTC 2008-12-04)
Audio #1
ID : 1
Format : MPEG Audio
Format version : Version 1
Format profile : Layer 3
Mode : Joint stereo
Mode extension : MS Stereo
Codec ID : 55
Codec ID/Hint : MP3
Duration : 1h 46mn
Bit rate mode : Constant
Bit rate : 128 Kbps
Channel(s) : 2 channels
Sampling rate : 44.1 KHz
Compression mode : Lossy
Stream size : 97.6 MiB (6%)
Alignment : Split accross interleaves
Interleave, duration : 42 ms (1.00 video frame)
Interleave, preload duration : 500 ms
Audio #2
ID : 2
Format : MPEG Audio
Format version : Version 1
Format profile : Layer 3
Mode : Joint stereo
Mode extension : MS Stereo
Codec ID : 55
Codec ID/Hint : MP3
Duration : 1h 46mn
Bit rate mode : Constant
Bit rate : 128 Kbps
Channel(s) : 2 channels
Sampling rate : 44.1 KHz
Compression mode : Lossy
Stream size : 97.6 MiB (6%)
Alignment : Split accross interleaves
Interleave, duration : 42 ms (1.00 video frame)
Interleave, preload duration : 500 ms

Скриншот c названием фильма

Скриншоты

[Профиль] [ЛС]
Показать сообщения:    
Ответить на тему

Текущее время: 23-Фев 00:01

Часовой пояс: UTC + 3



Вы не можете начинать темы
Вы не можете отвечать на сообщения
Вы не можете редактировать свои сообщения
Вы не можете удалять свои сообщения
Вы не можете голосовать в опросах
Вы не можете прикреплять файлы к сообщениям
Вы можете скачивать файлы