BitTorrent клиенты



Крутой нрав / Взрывной характер / Нрав / Temper (Пури Джаганнатх / Puri Jagannath) [2015, Индия, Комедия, DVDRip] MVO (SDI Media) + Sub Rus (песни)

Ответить на тему
 
Автор Сообщение

Alex ®

Пол: Не указан

Стаж: 1 год

Сообщений: 855

Создавать темы 06-Фев-2018 00:58

[Цитировать]

Крутой нрав / Temper
-Страна: Индия
Жанр: Комедия
Год выпуска: 2015
Продолжительность: 02:25:42-Перевод: Профессиональный (многоголосый закадровый) - SDI Media (т/к Индия ТВ)
Субтитры: Есть (песни) - Wita--Режиссер: Пури Джаганнатх / Puri Jagannath-В ролях: НТР-младший, Каджал Агарвал, Пракаш Радж, Посани Кришна Мурали, Джая Пракаш Редди, Мадхурима--Описание: Он не знал ни отца, ни матери. Но четко уяснил, что в жизни можно хорошо устроиться, если стать полицейским. Поставив цель в детстве, он упорно шел к ней. И вот уже субинспектор Дайя - коррумпированный офицер полиции, которого из столицы штата специально выписывает к себе глава преступного мира Визага. Задача Дайи - крышевать нелегальный бизнес, за это он берет большие деньги откатом и взятками. Но однажды его аморальные устои пошатнулись, и герою пришлось выбирать между привычным укладом своей жизни и любовью. (с) Вита--IMDb | Кинопоиск--Качество видео: DVDRip
Формат видео: AVI-Видео: 720x304 (2.37:1), 23.976 fps, XviD build 50 ~1188 kbps avg, 0.23 bit/pixel
Аудио: 48 kHz, MPEG Layer 3, 2 ch, ~160.00 kbps--Сэмпл / Sample--Релиз
Перевод субтитров: Wita (спасибо!)
Запись с канала: василисса (спасибо!)
Синхрон. звука: soso4eg-- --

Скриншот с названием

-

Скриншоты

-

MI

General
Complete name : F:\1_1\KRUTOY.NRAV.2015.P.DVDRip.XviD.BwTorrents\KRUTOY.NRAV.2015.P.DVDRip.XviD.BwTorrents.avi
Format : AVI
Format/Info : Audio Video Interleave
File size : 1.38 GiB
Duration : 2h 25mn
Overall bit rate : 1 358 Kbps
Writing application : VirtualDubMod 1.6.0.0 SURROUND (build 2560/release)
Writing library : VirtualDubMod build 2560/release
Video
ID : 0
Format : MPEG-4 Visual
Format profile : Advanced Simple@L5
Format settings, BVOP : 2
Format settings, QPel : Yes
Format settings, GMC : No warppoints
Format settings, Matrix : Default (H.263)
Codec ID : XVID
Codec ID/Hint : XviD
Duration : 2h 25mn
Bit rate : 1 189 Kbps
Width : 720 pixels
Height : 304 pixels
Display aspect ratio : 2.35:1
Frame rate : 23.976 fps
Color space : YUV
Chroma subsampling : 4:2:0
Bit depth : 8 bits
Scan type : Progressive
Compression mode : Lossy
Bits/(Pixel*Frame) : 0.227
Stream size : 1.21 GiB (88%)
Writing library : XviD 1.2.1 (UTC 2008-12-04)
Audio
ID : 1
Format : MPEG Audio
Format version : Version 1
Format profile : Layer 3
Codec ID : 55
Codec ID/Hint : MP3
Duration : 2h 25mn
Bit rate mode : Constant
Bit rate : 160 Kbps
Channel(s) : 2 channels
Sampling rate : 48.0 KHz
Compression mode : Lossy
Stream size : 167 MiB (12%)
Alignment : Aligned on interleaves
Interleave, duration : 42 ms (1.00 video frame)
Interleave, preload duratio : 504 ms
-
[Профиль] [ЛС]
Показать сообщения:    
Ответить на тему

Текущее время: 20-Фев 06:50

Часовой пояс: UTC + 3



Вы не можете начинать темы
Вы не можете отвечать на сообщения
Вы не можете редактировать свои сообщения
Вы не можете удалять свои сообщения
Вы не можете голосовать в опросах
Вы не можете прикреплять файлы к сообщениям
Вы можете скачивать файлы