Статистика раздачи
Размер:  3,71 GB   |    Зарегистрирован:  6 месяцев   |    Скачан:  0 раз

Полного источника не было: Никогда

Личеров:  1  [  0 KB/s  ]  
 
   
 
 

Volga ®

Пол:
Не указан
Стаж:
6 месяцев 1 день
Сообщений:
92

Хортон
Horton Hears a Who!
Год выпуска: 1970
Страна: США
Жанр: мультфильм, короткометражка, семейный
Продолжительность: 00:25:36
Перевод:
Авторский (Одноголосый закадровый) - Сергей Визгунов
Одноголосый закадровый - Яна Волкова (behaviour)
русские субтитры: есть - behaviour-Режиссёр: Чак Джонс : Chuck Jones, Бен Уошем : Ben Washam-Роли озвучивали: Ганс Конрид, Джун Форэй, Чак Джонс, Турль Рейвенскрофт-Описание: Хортон обнаруживает, что существует общество разумных существ микроскопического размера - Ктовичи, которых он один может расслышать. Распознав опасности, которые им угрожают, он решает обеспечить им безопасность. Однако, остальные звери решают, что Хортон спятил, решив, что существуют подобные существа. Они решают принять меры ради его же блага, в результате чего Хортон и Ктовичи вынуждены бороться за своё существование.- релиз: -- За дорогу С.Визгунова большое спасибо RoxMarty
- Большое спасибо за сведение С.Визгунова *Sergeant_am*
- Работа с Remux'ом и звуком -Azureus--Качество: BDRemux 1080p
Формат: MKV
Видео кодек: VC-1
Аудио кодек: AC3
Видео: 1920x1080 , 23,976 fps, ~19,6 Мbps avg, 0.394 bit/pixel
Аудио #1: [RUS] 48 kHz, AC3 Dolby Digital, 2/0 (L,R) ch, ~384 kbps avg - AVO
Аудио #2: [RUS] 48 kHz, AC3 Dolby Digital, 2/0 (L,R) ch, ~192 kbps avg - VO
Аудио #3: [ENG] 48 kHz, AC3 Dolby Digital, 2/0 (L,R) ch, ~192 kbps avg
субтитры: русские (full) - behaviour, английские (SDH)
навигация по главам: 17 глав

MediaInfo

Общее
Уникальный идентификатор : 254857321740460502661518534794448454500 (0xBFBBBC187C722D02811F88A7E1BBC364)
Полное имя : D:\Horton\Horton Hears a Who!1970.BDRemux 1080p.mkv
Формат : Matroska
Версия формата : Version 4 / Version 2
Размер файла : 3,71 Гбайт
Продолжительность : 25 м.
Общий поток : 20,8 Мбит/сек
Название фильма : Horton Hears a Who!1970.BDRemux 1080p -Azureus-
Дата кодирования : UTC 2017-01-13 08:28:06
Программа кодирования : mkvmerge v9.4.0 ('Knurl') 64bit
Библиотека кодирования : libebml v1.3.4 + libmatroska v1.4.5
Видео
Идентификатор : 1
Формат : VC-1
Профиль формата : Advanced@L3
Идентификатор кодека : V_MS/VFW/FOURCC / WVC1
Идентификатор кодека/Подсказка : Microsoft
Продолжительность : 25 м.
Битрейт : 20,0 Мбит/сек
Ширина : 1920 пикселей
Высота : 1080 пикселей
Соотношение сторон : 16:9
Режим частоты кадров : Постоянный
Частота кадров : 23,976 (24000/1001) кадра/сек
Цветовое пространство : YUV
Субдискретизация насыщенности : 4:2:0
Битовая глубина : 8 бит
Тип развёртки : Прогрессивная
Метод сжатия : С потерями
Бит/(Пиксели*Кадры) : 0.402
Размер потока : 3,57 Гбайт (96%)
Язык : English
Default : Да
Forced : Нет
Аудио #1
Идентификатор : 2
Формат : AC-3
Формат/Информация : Audio Coding 3
Расширение режима : CM (complete main)
Параметр Endianness формата : Big
Идентификатор кодека : A_AC3
Продолжительность : 25 м.
Вид битрейта : Постоянный
Битрейт : 384 Кбит/сек
Каналы : 2 канала
Расположение каналов : Front: L R
Частота : 48,0 КГц
Частота кадров : 31,250 кадров/сек (1536 spf)
Метод сжатия : С потерями
Размер потока : 70,3 Мбайт (2%)
Заголовок : AVO - Сергей Визгунов
Язык : Russian
Default : Да
Forced : Нет
Аудио #2
Идентификатор : 3
Формат : AC-3
Формат/Информация : Audio Coding 3
Расширение режима : CM (complete main)
Параметр Endianness формата : Big
Идентификатор кодека : A_AC3
Продолжительность : 25 м.
Вид битрейта : Постоянный
Битрейт : 192 Кбит/сек
Каналы : 2 канала
Расположение каналов : Front: L R
Частота : 48,0 КГц
Частота кадров : 31,250 кадров/сек (1536 spf)
Метод сжатия : С потерями
Размер потока : 35,2 Мбайт (1%)
Заголовок : VO - Яна Волкова (behaviour)
Язык : Russian
Default : Нет
Forced : Нет
Аудио #3
Идентификатор : 4
Формат : AC-3
Формат/Информация : Audio Coding 3
Профиль формата : Dolby Digital
Расширение режима : CM (complete main)
Параметр Endianness формата : Big
Идентификатор кодека : A_AC3
Продолжительность : 25 м.
Вид битрейта : Постоянный
Битрейт : 192 Кбит/сек
Каналы : 2 канала
Расположение каналов : Front: L R
Частота : 48,0 КГц
Частота кадров : 31,250 кадров/сек (1536 spf)
Метод сжатия : С потерями
Размер потока : 35,2 Мбайт (1%)
Заголовок : ENG
Язык : English
Default : Нет
Forced : Нет
Текст #1
Идентификатор : 5
Формат : UTF-8
Идентификатор кодека : S_TEXT/UTF8
Идентификатор кодека/Информация : UTF-8 Plain Text
Продолжительность : 23 м.
Битрейт : 134 бит/сек
Count of elements : 373
Размер потока : 23,2 Кбайт (0%)
Заголовок : Rus Sub - Яна Волкова (behaviour)
Язык : Russian
Default : Нет
Forced : Нет
Текст #2
Идентификатор : 6
Формат : UTF-8
Идентификатор кодека : S_TEXT/UTF8
Идентификатор кодека/Информация : UTF-8 Plain Text
Продолжительность : 24 м.
Битрейт : 84 бит/сек
Count of elements : 396
Размер потока : 15,1 Кбайт (0%)
Заголовок : Eng Sub - SDH
Язык : English
Default : Нет
Forced : Нет
Меню
00:00:00.000 : en:00:00:00.000
00:00:36.078 : en:00:00:36.078
00:01:57.242 : en:00:01:57.242
00:02:38.075 : en:00:02:38.075
00:03:40.971 : en:00:03:40.971
00:05:39.339 : en:00:05:39.339
00:08:02.565 : en:00:08:02.565
00:08:32.595 : en:00:08:32.595
00:10:24.749 : en:00:10:24.749
00:13:09.789 : en:00:13:09.789
00:14:51.766 : en:00:14:51.766
00:16:31.699 : en:00:16:31.699
00:17:38.766 : en:00:17:38.766
00:18:49.170 : en:00:18:49.170
00:20:57.298 : en:00:20:57.298
00:23:27.114 : en:00:23:27.114
00:24:47.486 : en:00:24:47.486
[www.cybertorrent.ru].t1939.torrent 
Торрент: Зарегистрирован [ 2018-02-16 08:44 ] · D33BFC1348BF8B31294EA5526B5B00A20F4B61A2

Скачать .torrent

Скачать

19 KB

Статус: проверено
Скачан: 0 раз
Размер: 3,71 GB
Профиль [ЛС]
Показать сообщения:    

Текущее время: 16-Авг 13:31

Часовой пояс: UTC ± 0



Вы не можете начинать темы
Вы не можете отвечать на сообщения
Вы не можете редактировать свои сообщения
Вы не можете удалять свои сообщения
Вы не можете голосовать в опросах
Вы не можете прикреплять файлы к сообщениям
Вы можете скачивать файлы
Torrents24.ru открытый BitTorrent Torrents24.pl открытый BitTorrent CyberTorrent.ru открытый BitTorrent BtList.ru рейтинг BitTorrent трекеров Яндекс.Метрика