Статистика раздачи
Размер:  4,16 GB   |    Зарегистрирован:  8 месяцев 7 дней   |    Скачан:  0 раз

Полного источника не было: Никогда

Личеров:  1  [  0 KB/s  ]  
 
   
 
 

Volga ®

Пол:
Не указан
Стаж:
8 месяцев 8 дней
Сообщений:
92

Как Гринч украл рождество!
How the Grinch Stole Christmas!
Год выпуска: 1966
Страна: США
Жанр: фэнтези, комедия, мюзикл, семейный, мультфильм, короткометражка
Продолжительность: 00:25:45
Перевод:
Авторский (Одноголосый закадровый) - Сергей Визгунов
Одноголосый закадровый - Яна Волкова (behaviour)
Одноголосый закадровый - Игорь Степанов (ELVIS10)
русские субтитры: есть - Narцissa-Режиссёр: Чак Джонс : Chuck Jones, Бен Уошем : Ben Washam-Роли озвучивали: Борис Карлофф, Джун Форэй, Турл Рейвенскрофт-Описание: Гринч живет на вершине холма над городком Ктоград со своим псом Максом. Каждый год во время Рождества ненависть Гринча к счастливым жителям Ктограда росла все больше и больше. Они дарили друг другу подарки, веселились на праздничных обедах и пели песни в городском парке, даже не подозревая о копящейся обиде Гринча. Однажды Гринч решил сорвать Рождество. Переодевшись в Санта Клауса, наскоро снарядившись и заставив свою собаку тащить его на санях, он пробрался в дома жителей городка и украл их подарки, еду и украшения…- релиз: -- За дорогу С.Визгунова большое спасибо RoxMarty
- Большое спасибо за сведение С.Визгунова *Sergeant_am*
- За украинскую дорогу от студии «Омикрон» спасибо сайту hurtom
- Работа с Remux'ом и со звуком -Azureus--Качество: BDRemux 1080p
Формат: MKV
Видео кодек: VC-1
Аудио кодек: AC3
Видео: 1920x1080 , 23,976 fps, ~21,3 Мbps avg, 0.429 bit/pixel
Аудио #1: [RUS] 48 kHz, AC3 Dolby Digital, 2/0 (L,R) ch, ~384 kbps avg - AVO
Аудио #2: [RUS] 48 kHz, AC3 Dolby Digital, 2/0 (L,R) ch, ~192 kbps avg - VO
Аудио #3: [RUS] 48 kHz, AC3 Dolby Digital, 2/0 (L,R) ch, ~192 kbps avg - VO
Аудио #4: [UKR] 48 kHz, AC3 Dolby Digital, 2/0 (L,R) ch, ~192 kbps avg
Аудио #5: [ENG] 48 kHz, AC3 Dolby Digital, 2/0 (L,R) ch, ~192 kbps avg
Аудио #6: [ENG] 48 kHz, AC3 Dolby Digital, 2/0 (L,R) ch, ~192 kbps avg - coment
субтитры: русские (full) - Narцissa, английские (SDH)
навигация по главам: 17 глав

MediaInfo

Общее
Уникальный идентификатор : 218507510822841824084887840903950325681 (0xA463040C90939FD0AF573BC0F9D557B1)
Полное имя : D:\Grinch\How the Grinch Stole Christmas!1966.BDRemux 1080p.mkv
Формат : Matroska
Версия формата : Version 4 / Version 2
Размер файла : 4,12 Гбайт
Продолжительность : 25 м.
Общий поток : 22,9 Мбит/сек
Название фильма : How the Grinch Stole Christmas!1966.BDRemux 1080p -Azureus-
Дата кодирования : UTC 2017-01-13 08:22:06
Программа кодирования : mkvmerge v9.4.0 ('Knurl') 64bit
Библиотека кодирования : libebml v1.3.4 + libmatroska v1.4.5
Видео
Идентификатор : 1
Формат : VC-1
Профиль формата : Advanced@L3
Идентификатор кодека : V_MS/VFW/FOURCC / WVC1
Идентификатор кодека/Подсказка : Microsoft
Продолжительность : 25 м.
Битрейт : 21,8 Мбит/сек
Ширина : 1920 пикселей
Высота : 1080 пикселей
Соотношение сторон : 16:9
Режим частоты кадров : Постоянный
Частота кадров : 23,976 (24000/1001) кадра/сек
Цветовое пространство : YUV
Субдискретизация насыщенности : 4:2:0
Битовая глубина : 8 бит
Тип развёртки : Прогрессивная
Метод сжатия : С потерями
Бит/(Пиксели*Кадры) : 0.438
Размер потока : 3,91 Гбайт (95%)
Язык : English
Default : Да
Forced : Нет
Аудио #1
Идентификатор : 2
Формат : AC-3
Формат/Информация : Audio Coding 3
Расширение режима : CM (complete main)
Параметр Endianness формата : Big
Идентификатор кодека : A_AC3
Продолжительность : 25 м.
Вид битрейта : Постоянный
Битрейт : 384 Кбит/сек
Каналы : 2 канала
Расположение каналов : Front: L R
Частота : 48,0 КГц
Частота кадров : 31,250 кадров/сек (1536 spf)
Метод сжатия : С потерями
Размер потока : 70,7 Мбайт (2%)
Заголовок : AVO - Сергей Визгунов
Язык : Russian
Default : Да
Forced : Да
Аудио #2
Идентификатор : 3
Формат : AC-3
Формат/Информация : Audio Coding 3
Расширение режима : CM (complete main)
Параметр Endianness формата : Big
Идентификатор кодека : A_AC3
Продолжительность : 25 м.
Вид битрейта : Постоянный
Битрейт : 192 Кбит/сек
Каналы : 2 канала
Расположение каналов : Front: L R
Частота : 48,0 КГц
Частота кадров : 31,250 кадров/сек (1536 spf)
Метод сжатия : С потерями
Размер потока : 35,4 Мбайт (1%)
Заголовок : VO - Яна Волкова (behaviour)
Язык : Russian
Default : Нет
Forced : Нет
Аудио #3
Идентификатор : 4
Формат : AC-3
Формат/Информация : Audio Coding 3
Расширение режима : CM (complete main)
Параметр Endianness формата : Big
Идентификатор кодека : A_AC3
Продолжительность : 25 м.
Вид битрейта : Постоянный
Битрейт : 192 Кбит/сек
Каналы : 2 канала
Расположение каналов : Front: L R
Частота : 48,0 КГц
Частота кадров : 31,250 кадров/сек (1536 spf)
Метод сжатия : С потерями
Размер потока : 35,4 Мбайт (1%)
Заголовок : VO - Игорь Степанов (ELVIS10)
Язык : Russian
Default : Нет
Forced : Нет
Аудио #4
Идентификатор : 5
Формат : AC-3
Формат/Информация : Audio Coding 3
Профиль формата : Dolby Digital
Расширение режима : CM (complete main)
Параметр Endianness формата : Big
Идентификатор кодека : A_AC3
Продолжительность : 25 м.
Вид битрейта : Постоянный
Битрейт : 192 Кбит/сек
Каналы : 2 канала
Расположение каналов : Front: L R
Частота : 48,0 КГц
Частота кадров : 31,250 кадров/сек (1536 spf)
Метод сжатия : С потерями
Размер потока : 35,4 Мбайт (1%)
Заголовок : ENG
Язык : English
Default : Нет
Forced : Нет
Аудио #5
Идентификатор : 6
Формат : AC-3
Формат/Информация : Audio Coding 3
Расширение режима : CM (complete main)
Параметр Endianness формата : Big
Идентификатор кодека : A_AC3
Продолжительность : 25 м.
Вид битрейта : Постоянный
Битрейт : 192 Кбит/сек
Каналы : 2 канала
Расположение каналов : Front: L R
Частота : 48,0 КГц
Частота кадров : 31,250 кадров/сек (1536 spf)
Метод сжатия : С потерями
Размер потока : 35,4 Мбайт (1%)
Заголовок : ENG - coment
Язык : English
Default : Нет
Forced : Нет
Текст #1
Идентификатор : 7
Формат : UTF-8
Идентификатор кодека : S_TEXT/UTF8
Идентификатор кодека/Информация : UTF-8 Plain Text
Продолжительность : 24 м.
Битрейт : 97 бит/сек
Count of elements : 245
Размер потока : 17,5 Кбайт (0%)
Заголовок : Rus Sub - Narцissa
Язык : Russian
Default : Нет
Forced : Нет
Текст #2
Идентификатор : 8
Формат : UTF-8
Идентификатор кодека : S_TEXT/UTF8
Идентификатор кодека/Информация : UTF-8 Plain Text
Продолжительность : 23 м.
Битрейт : 54 бит/сек
Count of elements : 188
Размер потока : 9,37 Кбайт (0%)
Заголовок : Eng Sub - SDH
Язык : English
Default : Нет
Forced : Нет
Меню
00:00:00.000 : en:00:00:00.000
00:00:48.757 : en:00:00:48.757
00:01:27.212 : en:00:01:27.212
00:02:03.332 : en:00:02:03.332
00:03:19.408 : en:00:03:19.408
00:05:14.731 : en:00:05:14.731
00:05:59.776 : en:00:05:59.776
00:07:10.513 : en:00:07:10.513
00:08:14.119 : en:00:08:14.119
00:09:26.399 : en:00:09:26.399
00:10:43.017 : en:00:10:43.017
00:11:59.636 : en:00:11:59.636
00:14:40.213 : en:00:14:40.213
00:18:50.087 : en:00:18:50.087
00:19:55.319 : en:00:19:55.319
00:21:17.568 : en:00:21:17.568
00:25:12.928 : en:00:25:12.928
____________________________________________
[box]Стою на раздаче до 5 дней.
Просьба скачавшим как можно дольше не покидать раздачу!
ВСЕМ ПРИЯТНОГО ПРОСМОТРА![/box]
_________________________________________
[www.cybertorrent.ru].t1926.torrent 
Торрент: Зарегистрирован [ 2018-02-16 08:44 ] · 06551B67D8CC560FB8CB05BB4831C146B26B4A29

Скачать .torrent

Скачать

21 KB

Статус: проверено
Скачан: 0 раз
Размер: 4,16 GB
Профиль [ЛС]
Показать сообщения:    

Текущее время: 24-Окт 05:20

Часовой пояс: UTC ± 0



Вы не можете начинать темы
Вы не можете отвечать на сообщения
Вы не можете редактировать свои сообщения
Вы не можете удалять свои сообщения
Вы не можете голосовать в опросах
Вы не можете прикреплять файлы к сообщениям
Вы можете скачивать файлы
Torrents24.ru открытый BitTorrent Torrents24.pl открытый BitTorrent CyberTorrent.ru открытый BitTorrent BtList.ru рейтинг BitTorrent трекеров Яндекс.Метрика