Статистика раздачи
Размер:  19,06 GB   |    Зарегистрирован:  8 месяцев 5 дней   |    Скачан:  0 раз

Полного источника не было: Никогда

 
   
 
 

antikvar ®

Пол:
Не указан
Стаж:
8 месяцев 6 дней
Сообщений:
50

Совершенный Человек-Паук. Паутинные бойцы / Ultimate Spider-Man. Web-Warriors- Оригинальное название: Ultimate Spider-Man. Web Warriors
Русское название: Совершенный Человек-Паук. Паутинные бойцы
Год выпуска: 2014
Страна: США
Жанр: Приключения, экранизация комиксов, комедия
Продолжительность серии: 20 минут (серия)
Перевод:
Любительский (многоголосый закадровый)
Субтитры: нет
Сэмпл: скачать
Производтсво: MARVEL Animated Studios
Режиссёр: Тим Элдред, Алекс Сото / Tim Eldred, Alex Soto
Роли озвучивали: Дрейк Белл, Стивен Уэбер, Дж.К. Симмонс, Чи МакБрайд и другие
Описание: Новый мультсериал о Человеке-пауке, являющийся переделкой основной серии мультфильмов. Теперь главный герой Питер Паркер превратился из наивного и отчаянного подростка в настоящего героя, который примирился со своим происхождением и способностями. Новые серии покажут уникальное путешествие, в процессе которого мы увидим, как наш любимый стенолаз объединяется с другими супергероями Марвел в никогда ранее не виденных сюжетах о новой жизни, полной сложных задач и новых друзей.- -Перевод: Yellow Tree
Роли озвуивали: Денис Коровин, Дмитрий Лунёв и Таисия Тришина.-Качество: WEB-DL 720p
Формат: MKV
Видео кодек: h264
Аудио кодек: AC3, AAC
Видео: MPEG4 Video (H264) 1280x720 23.976fps ~3800Kbps
Аудио 1 (MVO): Dolby AC3 48000Hz stereo 192Kbps,
Аудио 2 (оригинал): Dolby AC3 48000Hz 5.1 384Kbps,
предыдущие и альтернативные раздачи

Скриншоты:

-

Список серий:

01. The Avenging Spider-Man [P1]
02. The Avenging Spider-Man [P2]
03. Agent Venom
04. Cloak & Dagger
05. The Next Iron Spider
06. The Vulture
07. The Savage Spider-Man
08. New Warriors
09. Spider-verse [P1]
10. Spider-verse [P2]
11. Spider-verse [P3]
12. Spider-verse [P4]
13. The Return of the Guardians of the Galaxy
14. S.H.I.E.L.D. Academy
15. Rampaging Rhino
16. Ant-Man
18. Inhumans
21. Halloween Night at the Museum
22. Nightmare on Christmas
23. Contest.of.Champions [pt1]
24. Contest.of.Champions [pt2]
25. Contest.of.Champions [pt3]
26. Contest.of.Champions [pt4]

MI

Код:General
Unique ID : 204495258199618346886319507608372321903 (0x99D85AA7F2B5DC08BB0441D7D6691E6F)
Complete name : V:\HD\Ultimate Spider-Man. 3 season (WEB-DL l 720p l SerGoLeOne)\01. The Avenging Spider-Man [p1].mkv
Format : Matroska
Format version : Version 1
File size : 717 MiB
Duration : 22mn 3s
Overall bit rate : 4 548 Kbps
Encoded date : UTC 2014-10-21 18:59:42
Writing application : mkvmerge v2.3.0 ('Freak U') built on Sep 8 2008 18:32:16
Writing library : libebml v0.7.7 + libmatroska v0.8.1
DURATION : 00:21:30.554000000
NUMBER_OF_FRAMES : 527
NUMBER_OF_BYTES : 13753
_STATISTICS_WRITING_APP : mkvmerge v7.1.0 ('Good Love') 64bit built on Jul 27 2014 18:14:50
_STATISTICS_WRITING_DATE_UTC : 2014-08-15 14:38:54
_STATISTICS_TAGS : BPS DURATION NUMBER_OF_FRAMES NUMBER_OF_BYTES
Video
ID : 1
Format : AVC
Format/Info : Advanced Video Codec
Format profile : High@L3.1
Format settings, CABAC : No
Format settings, ReFrames : 2 frames
Format settings, GOP : N=1
Codec ID : V_MPEG4/ISO/AVC
Duration : 22mn 3s
Bit rate : 3 881 Kbps
Width : 1 280 pixels
Height : 720 pixels
Display aspect ratio : 16:9
Frame rate mode : Constant
Frame rate : 23.976 fps
Color space : YUV
Chroma subsampling : 4:2:0
Bit depth : 8 bits
Scan type : Progressive
Bits/(Pixel*Frame) : 0.176
Stream size : 612 MiB (85%)
Title : H.264
Default : Yes
Forced : No
Color primaries : BT.709
Transfer characteristics : BT.709
Matrix coefficients : BT.709
Audio #1
ID : 2
Format : AC-3
Format/Info : Audio Coding 3
Mode extension : CM (complete main)
Format settings, Endianness : Big
Codec ID : A_AC3
Duration : 22mn 3s
Bit rate mode : Constant
Bit rate : 192 Kbps
Channel(s) : 2 channels
Channel positions : Front: L R
Sampling rate : 48.0 KHz
Bit depth : 16 bits
Compression mode : Lossy
Stream size : 30.3 MiB (4%)
Language : Russian
Default : Yes
Forced : No
Audio #2
ID : 3
Format : AC-3
Format/Info : Audio Coding 3
Mode extension : CM (complete main)
Format settings, Endianness : Big
Codec ID : A_AC3
Duration : 22mn 3s
Bit rate mode : Constant
Bit rate : 384 Kbps
Channel(s) : 6 channels
Channel positions : Front: L C R, Side: L R, LFE
Sampling rate : 48.0 KHz
Bit depth : 16 bits
Compression mode : Lossy
Stream size : 60.6 MiB (8%)
Title : DD5.1
Language : English
Default : No
Forced : No
Text
ID : 4
Format : UTF-8
Codec ID : S_TEXT/UTF8
Codec ID/Info : UTF-8 Plain Text
Title : CC
Language : English
Default : No
Forced : No
Код:General
Unique ID : 171248690725377700080292446041245703962 (0x80D54C52EFC1EA46A0C2E480B22B5F1A)
Complete name : V:\HD\Ultimate Spider-Man. 3 season (WEB-DL l 720p l SerGoLeOne)\15. Rampaging Rhino.mkv
Format : Matroska
Format version : Version 1
File size : 279 MiB
Duration : 21mn 9s
Overall bit rate : 1 841 Kbps
Encoded date : UTC 2014-12-19 16:36:00
Writing application : mkvmerge v2.3.0 ('Freak U') built on Sep 8 2008 18:32:16
Writing library : libebml v0.7.7 + libmatroska v0.8.1
Video
ID : 1
Format : AVC
Format/Info : Advanced Video Codec
Format profile : High@L3.1
Format settings, CABAC : Yes
Format settings, ReFrames : 8 frames
Codec ID : V_MPEG4/ISO/AVC
Duration : 21mn 9s
Nominal bit rate : 1 549 Kbps
Width : 720 pixels
Height : 400 pixels
Display aspect ratio : 16:9
Frame rate : 25.000 fps
Color space : YUV
Chroma subsampling : 4:2:0
Bit depth : 8 bits
Scan type : Progressive
Bits/(Pixel*Frame) : 0.215
Writing library : x264 core 79 r1342kMod e8501ef
Encoding settings : cabac=1 / ref=8 / deblock=1:-1:-1 / analyse=0x3:0x133 / me=umh / subme=7 / psy=1 / psy_rd=1.0:0.1 / mixed_ref=1 / me_range=16 / chroma_me=1 / trellis=2 / 8x8dct=1 / cqm=0 / deadzone=21,11 / chroma_qp_offset=-3 / threads=6 / nr=0 / decimate=1 / mbaff=0 / constrained_intra=0 / bframes=3 / b_pyramid=0 / b_adapt=2 / b_bias=0 / direct=3 / wpredb=1 / wpredp=2 / keyint=250 / keyint_min=25 / scenecut=40 / rc_lookahead=50 / rc=2pass / mbtree=1 / bitrate=1549 / ratetol=1.0 / qcomp=0.60 / qpmin=10 / qpmax=51 / qpstep=4 / cplxblur=20.0 / qblur=0.5 / ip_ratio=1.40 / aq=1:1.00
Default : Yes
Forced : No
Audio #1
ID : 2
Format : AC-3
Format/Info : Audio Coding 3
Mode extension : CM (complete main)
Format settings, Endianness : Big
Codec ID : A_AC3
Duration : 21mn 9s
Bit rate mode : Constant
Bit rate : 192 Kbps
Channel(s) : 2 channels
Channel positions : Front: L R
Sampling rate : 48.0 KHz
Bit depth : 16 bits
Compression mode : Lossy
Stream size : 29.0 MiB (10%)
Language : Russian
Default : Yes
Forced : No
Audio #2
ID : 3
Format : AAC
Format/Info : Advanced Audio Codec
Format profile : LC
Codec ID : A_AAC
Duration : 21mn 9s
Channel(s) : 2 channels
Channel positions : Front: L R
Sampling rate : 48.0 KHz
Compression mode : Lossy
Language : English
Default : No
Forced : NoКод:General
Unique ID : 220010235295841500906837986292397151224 (0xA5846E15F94DEC32B452C35F0E6293F8)
Complete name : V:\HD\Ultimate Spider-Man. 3 season (WEB-DL l 720p l SerGoLeOne)\14. S.H.I.E.L.D. Academy.mkv
Format : Matroska
Format version : Version 1
File size : 308 MiB
Duration : 21mn 10s
Overall bit rate : 2 035 Kbps
Encoded date : UTC 2014-11-09 16:05:00
Writing application : mkvmerge v2.3.0 ('Freak U') built on Sep 8 2008 18:32:16
Writing library : libebml v0.7.7 + libmatroska v0.8.1
Video
ID : 1
Format : AVC
Format/Info : Advanced Video Codec
Format profile : Main@L3.0
Format settings, CABAC : Yes
Format settings, ReFrames : 4 frames
Codec ID : V_MPEG4/ISO/AVC
Duration : 21mn 10s
Width : 720 pixels
Height : 576 pixels
Display aspect ratio : 16:9
Original display aspect ratio : 5:4
Frame rate : 25.000 fps
Standard : PAL
Color space : YUV
Chroma subsampling : 4:2:0
Bit depth : 8 bits
Scan type : Progressive
Writing library : x264 core 120
Encoding settings : cabac=1 / ref=1 / deblock=1:0:0 / analyse=0x1:0x111 / me=hex / subme=2 / psy=1 / psy_rd=1.00:0.00 / mixed_ref=0 / me_range=16 / chroma_me=1 / trellis=0 / 8x8dct=0 / cqm=0 / deadzone=21,11 / fast_pskip=1 / chroma_qp_offset=0 / threads=6 / sliced_threads=0 / nr=0 / decimate=1 / interlaced=0 / bluray_compat=0 / constrained_intra=0 / bframes=3 / b_pyramid=2 / b_adapt=1 / b_bias=0 / direct=1 / weightb=1 / open_gop=0 / weightp=1 / keyint=250 / keyint_min=25 / scenecut=40 / intra_refresh=0 / rc_lookahead=10 / rc=crf / mbtree=1 / crf=17.8 / qcomp=0.60 / qpmin=3 / qpmax=69 / qpstep=4 / ip_ratio=1.40 / aq=1:1.00
Default : Yes
Forced : No
Color primaries : BT.601-6 525, BT.1358 525, BT.1700 NTSC, SMPTE 170M
Transfer characteristics : BT.709-5, BT.1361
Matrix coefficients : BT.601-6 525, BT.1358 525, BT.1700 NTSC, SMPTE 170M
Audio #1
ID : 2
Format : AC-3
Format/Info : Audio Coding 3
Mode extension : CM (complete main)
Format settings, Endianness : Big
Codec ID : A_AC3
Duration : 21mn 10s
Bit rate mode : Constant
Bit rate : 192 Kbps
Channel(s) : 2 channels
Channel positions : Front: L R
Sampling rate : 48.0 KHz
Bit depth : 16 bits
Compression mode : Lossy
Stream size : 29.1 MiB (9%)
Language : Russian
Default : Yes
Forced : No
Audio #2
ID : 3
Format : AAC
Format/Info : Advanced Audio Codec
Format profile : LC
Codec ID : A_AAC
Duration : 21mn 10s
Channel(s) : 2 channels
Channel positions : Front: L R
Sampling rate : 48.0 KHz
Compression mode : Lossy
Language : English
Default : No
Forced : No
[www.cybertorrent.ru].t1925.torrent 
Торрент: Зарегистрирован [ 2018-02-16 08:44 ] · A8DCFEAFFE1E3ACD4F01FC50960919AEEC1AB7CC

Скачать .torrent

Скачать

50 KB

Статус: проверено
Скачан: 0 раз
Размер: 19,06 GB
Профиль [ЛС]
Показать сообщения:    

Текущее время: 22-Окт 05:57

Часовой пояс: UTC ± 0



Вы не можете начинать темы
Вы не можете отвечать на сообщения
Вы не можете редактировать свои сообщения
Вы не можете удалять свои сообщения
Вы не можете голосовать в опросах
Вы не можете прикреплять файлы к сообщениям
Вы можете скачивать файлы
Torrents24.ru открытый BitTorrent Torrents24.pl открытый BitTorrent CyberTorrent.ru открытый BitTorrent BtList.ru рейтинг BitTorrent трекеров Яндекс.Метрика