BitTorrent клиенты



По имени Шабана / Её звали Шабана / Naam Shabana (Шивам Наир / Shivam Nair) [2017, Индия, Триллер, боевик, DVDRip] MVO (т/к ZEE TV)

Ответить на тему
 
Автор Сообщение

Alex ®

Пол: Не указан

Стаж: 1 год

Сообщений: 855

Создавать темы 06-Фев-2018 00:58

[Цитировать]

По имени Шабана / Naam Shabana
Страна: Индия
Жанр: Боевик, триллер
Год выпуска: 2017
Продолжительность: 02:25:33-Перевод: Профессиональный (многоголосый закадровый) - [т/к ZEE TV]
Субтитры: Нет-Режиссер: Шивам Наир / Shivam Nair-В ролях: Таапси Панну, Акшай Кумар, Манодж Баджпай, Тахер Шаббир, Вирендра Саксена, Притхвирадж Сукумаран, Дэнни Дензонгпа, Мадхурима Тули, Мурли Шарма, Анупам Кхер, Бхуван Арора, Раджеш Бхати, Шива Дагар, Закир Хуссэйн, Мохан Капур, Амарджит Сингх, Манав Видж-Описание: Опытный секретный агент Шабана Кхан успела принять участие в разных сложных миссиях. Шабана была влюблена в одного мужчину, но кто-то расправился с ее любимым, и главная героиня решила найти убийцу и отомстить ему. Вычислить убийцу будет невероятно сложно, однако Шабана не собирается сдаваться, она готова идти до конца, чтобы покарать злодея...--Качество видео: DVDRip
Формат видео: AVI-Видео: 640x272 (2.35:1), 23.976 fps, DivX, ~1216 kbps avg, 0.29 bit/pixel
Аудио: 44.100 kHz, MPEG Layer 3, 2 ch, ~128.00 kbps avg-IMDb | Кинопоиск | Сэмпл-Релиз:
Запись и синхрон. звука: василисса (спасибо!)- --

Скриншот с названием

-

Скриншоты

-

MediaInfo

General
Complete name : U:\[Релизы]\Po.Imeni.Shabana.2017.DVDRip.DivX.BwTorrents.avi
Format : AVI
Format/Info : Audio Video Interleave
Format profile : OpenDML
File size : 1.37 GiB
Duration : 2h 25mn
Overall bit rate : 1 351 Kbps
Video
ID : 0
Format : MPEG-4 Visual
Format profile : Advanced Simple@L5
Format settings, BVOP : 2
Format settings, QPel : No
Format settings, GMC : No warppoints
Format settings, Matrix : Default (MPEG)
Codec ID : DX50
Codec ID/Hint : DivX 5
Duration : 2h 25mn
Bit rate : 1 209 Kbps
Width : 640 pixels
Height : 272 pixels
Display aspect ratio : 2.35:1
Frame rate : 23.976 fps
Color space : YUV
Chroma subsampling : 4:2:0
Bit depth : 8 bits
Scan type : Progressive
Compression mode : Lossy
Bits/(Pixel*Frame) : 0.290
Stream size : 1.23 GiB (89%)
Writing library : XviD 1.2.1 (UTC 2008-12-04)
Audio
ID : 1
Format : MPEG Audio
Format version : Version 1
Format profile : Layer 3
Mode : Joint stereo
Mode extension : MS Stereo
Codec ID : 55
Codec ID/Hint : MP3
Duration : 2h 25mn
Bit rate mode : Constant
Bit rate : 128 Kbps
Channel(s) : 2 channels
Sampling rate : 44.1 KHz
Compression mode : Lossy
Stream size : 133 MiB (9%)
Alignment : Aligned on interleaves
Interleave, duration : 26 ms (0.63 video frame)
[Профиль] [ЛС]
Показать сообщения:    
Ответить на тему

Текущее время: 21-Фев 23:35

Часовой пояс: UTC + 3



Вы не можете начинать темы
Вы не можете отвечать на сообщения
Вы не можете редактировать свои сообщения
Вы не можете удалять свои сообщения
Вы не можете голосовать в опросах
Вы не можете прикреплять файлы к сообщениям
Вы можете скачивать файлы