Статистика раздачи
Размер:  10,77 GB   |    Зарегистрирован:  8 месяцев 3 дня   |    Скачан:  0 раз

Полного источника не было: Никогда

 
   
 
 

DR_KTO ®

Пол:
Не указан
Стаж:
8 месяцев 4 дня
Сообщений:
105

Симпсоны / The Simpsons-
  • Страна: США
  • Жанр: комедия, ситком, сатира
  • Продолжительность: ~00:22:00 (одной серии)
  • Год выпуска: 2012-2013
  • Перевод:
  • профессиональный (многоголосый, закадровый) - VO-production
  • Любительский (многоголосый, закадровый) - Nice-Media
  • Русские субтитры: есть - Notabenoid
    -
  • Режиссёр: Мэтт Грейнинг
  • Роли озвучивали: Дэн Кастелланета, Хэнк Азариа, Джулия Кавнер, Нэнси Картрайт, Ярдли Смит, Гарри Ширер
    -
  • Описание:
  • «Си́мпсоны» (англ. The Simpsons) — самый длинный мультсериал в истории американского телевидения, длящийся 25 сезонов (теперь продлён до 26). Первая мини-серия «Good night» была показана в «Шоу Трейси Ульман» 19 апреля 1987 года. Демонстрация полноценных серий мультсериала началась 17 декабря 1989 года на канале FOX. Выпускается «Gracie Films» для кинокомпании «20th Century Fox». Мультсериал в настоящее время известен телезрителям более чем 100 стран.
  • Это насыщенное сатирой (в том числе социальной) шоу высмеивает многие клише и стереотипы, в частности — стиль жизни «среднестатистического американца», особенности мировых культур в целом, знаменитостей и даже само телевидение и телеканал «FOX»; не стесняется затрагивать такие скользкие вопросы, как политика и религия: в частности, поднимались темы однополых браков, борьбы дарвинистов и креационистов, войны в Ираке.
  • Журнал Time в 1998 году назвал «Симпсонов» лучшим телевизионным сериалом XX века. 27 июля 2007 года в США прошла премьера полнометражного мультфильма с героями сериала, «The Simpsons Movie»; в России фильм получил название «Симпсоны в кино», его выход на экраны состоялся 16 августа 2007 года.
    -
  • Доп. информация: Двадцать четвёртый сезон мультсериала «Симпсоны» — вышел в эфир 30 сентября 2012 года на телеканале Fox. Завершился 19 мая 2013 года.
    -
  • Релиз: BenderBEST
    -
  • Ссылка на предыдущие и альтернативные раздачи
  • Семпл
    -
  • Качество: WEB-DL 720p
  • Формат: MKV
  • Видео: AVC, 1280x720 (16:9), 23.976 fps, 2 500 Kbps (0.113 bit/pixel)
  • Аудио:
  • AC-3, 48.0 KHz, 2 ch, 192 Kbps, CBR (Russian: VO-production)
  • AC-3, 48.0 KHz, 2 ch, 192 Kbps, CBR (Russian: Nice-Media)
  • AC-3, 48.0 KHz, 6 ch, 384 Kbps, CBR (English)
  • Субтитры: UTF-8 (Russian: Notabenoid)

    Список серий

  • 01. Ерунда чистой воды / Moonshine River
  • 02. Дом ужасов 23 / Treehouse of Horror XXIII
  • 03. Риски завести детей / Adventures in Baby-Getting
  • 04. Прощай, Эйби, прощай / Gone Abie Gone
  • 05. Мелочные парни / Penny-Wiseguys
  • 06. Дерево, растущее в Спрингфилде / A Tree Grows in Springfield
  • 07. День, когда Земля стала крутой / The Day the Earth Stood Cool
  • 08. К дворняге с любовью / To Cur with Love
  • 09. Гомер отправляется в подготовительную школу / Homer Goes to Prep School
  • 10. Тест перед попыткой / A Test Before Trying
  • 11. Замена опекуна / Changing of the Guardian
  • 12. Любовь — это вещь, разбитая на много кусочков / Love Is a Many Splintered Thing
  • 13. Едва ли, Кирк / Hardly Kirk-ing
  • 14. Замечательный дедушка / Gorgeous Grampa
  • 15. Синяк под глаз, пожалуйста / Black-Eyed, Please
  • 16. Суд Тёмного рыцаря / Dark Knight Court
  • 17. Чего хотят анимированные женщины / What Animated Women Want
  • 18. Проповеднические разногласия / Pulpit Friction
  • 19. Виски-бизнес / Whiskey Business
  • 20. Потрясающий мошенник / The Fabulous Faker Boy
  • 21. Сага о Карле / The Saga of Carl
  • 22. Опасности в поезде / Dangers on a Train
  • Подробные технические данные

    General
    Unique ID : 217611274193207628810576278413259123943 (0xA3B6682BF10E5981B5E4DC363BF12CE7)
    Complete name : C:\Users\Сергей\Downloads\The Simpsons. Season 24 (2012-2013) - WEB-DL 720p\01 (509). Moonshine River.mkv
    Format : Matroska
    Format version : Version 2
    File size : 497 MiB
    Duration : 21mn 13s
    Overall bit rate : 3 277 Kbps
    Movie name : ReJIiZ MedyaClub by BenderBEST
    Encoded date : UTC 2013-02-25 08:43:33
    Writing application : mkvmerge v4.0.0 ('The Stars were mine') сборка от Jun 6 2010 16:18:42
    Writing library : libebml v1.0.0 + libmatroska v1.0.0
    Video
    ID : 1
    Format : AVC
    Format/Info : Advanced Video Codec
    Format profile : High@L4.1
    Format settings, CABAC : Yes
    Format settings, ReFrames : 4 frames
    Codec ID : V_MPEG4/ISO/AVC
    Bit rate : 2 500 Kbps
    Width : 1 280 pixels
    Height : 720 pixels
    Display aspect ratio : 16:9
    Frame rate mode : Variable
    Original frame rate : 23.976 fps
    Color space : YUV
    Chroma subsampling : 4:2:0
    Bit depth : 8 bits
    Scan type : Progressive
    Bits/(Pixel*Frame) : 0.113
    Writing library : x264 core 125 r2208 d9d2288
    Encoding settings : cabac=1 / ref=4 / deblock=1:-1:-1 / analyse=0x3:0x133 / me=umh / subme=4 / psy=1 / psy_rd=1.00:0.10 / mixed_ref=1 / me_range=16 / chroma_me=1 / trellis=2 / 8x8dct=1 / cqm=0 / deadzone=21,11 / fast_pskip=1 / chroma_qp_offset=-1 / threads=6 / lookahead_threads=1 / sliced_threads=0 / nr=0 / decimate=1 / interlaced=0 / bluray_compat=0 / constrained_intra=0 / bframes=4 / b_pyramid=2 / b_adapt=2 / b_bias=0 / direct=3 / weightb=1 / open_gop=0 / weightp=2 / keyint=250 / keyint_min=23 / scenecut=40 / intra_refresh=0 / rc_lookahead=50 / rc=2pass / mbtree=1 / bitrate=2500 / ratetol=1.0 / qcomp=0.60 / qpmin=0 / qpmax=69 / qpstep=4 / cplxblur=20.0 / qblur=0.5 / ip_ratio=1.40 / aq=1:1.00
    Language : English
    Default : Yes
    Forced : No
    Audio #1
    ID : 2
    Format : AC-3
    Format/Info : Audio Coding 3
    Mode extension : CM (complete main)
    Format settings, Endianness : Big
    Codec ID : A_AC3
    Duration : 21mn 13s
    Bit rate mode : Constant
    Bit rate : 192 Kbps
    Channel(s) : 2 channels
    Channel positions : Front: L R
    Sampling rate : 48.0 KHz
    Bit depth : 16 bits
    Compression mode : Lossy
    Delay relative to video : 10ms
    Stream size : 29.1 MiB (6%)
    Title : VO-production
    Language : Russian
    Default : Yes
    Forced : No
    Audio #2
    ID : 3
    Format : AC-3
    Format/Info : Audio Coding 3
    Mode extension : CM (complete main)
    Format settings, Endianness : Big
    Codec ID : A_AC3
    Duration : 21mn 13s
    Bit rate mode : Constant
    Bit rate : 192 Kbps
    Channel(s) : 2 channels
    Channel positions : Front: L R
    Sampling rate : 48.0 KHz
    Bit depth : 16 bits
    Compression mode : Lossy
    Delay relative to video : 10ms
    Stream size : 29.1 MiB (6%)
    Title : Nice-Media
    Language : Russian
    Default : No
    Forced : No
    Audio #3
    ID : 4
    Format : AC-3
    Format/Info : Audio Coding 3
    Mode extension : CM (complete main)
    Format settings, Endianness : Big
    Codec ID : A_AC3
    Duration : 21mn 13s
    Bit rate mode : Constant
    Bit rate : 384 Kbps
    Channel(s) : 6 channels
    Channel positions : Front: L C R, Side: L R, LFE
    Sampling rate : 48.0 KHz
    Bit depth : 16 bits
    Compression mode : Lossy
    Delay relative to video : 10ms
    Stream size : 58.3 MiB (12%)
    Language : English
    Default : No
    Forced : No
    Text
    ID : 5
    Format : UTF-8
    Codec ID : S_TEXT/UTF8
    Codec ID/Info : UTF-8 Plain Text
    Language : Russian
    Default : No
    Forced : No

    Скриншоты


    [www.cybertorrent.ru].t1919.torrent 
    Торрент: Зарегистрирован [ 2018-02-16 08:44 ] · 326BD4C94647730DEF14E4F7CB7CE3E197E60621

    Скачать .torrent

    Скачать

    29 KB

    Статус: проверено
    Скачан: 0 раз
    Размер: 10,77 GB
    Профиль [ЛС]
    Показать сообщения:    

    Текущее время: 20-Окт 02:46

    Часовой пояс: UTC ± 0



    Вы не можете начинать темы
    Вы не можете отвечать на сообщения
    Вы не можете редактировать свои сообщения
    Вы не можете удалять свои сообщения
    Вы не можете голосовать в опросах
    Вы не можете прикреплять файлы к сообщениям
    Вы можете скачивать файлы
    Torrents24.ru открытый BitTorrent Torrents24.pl открытый BitTorrent CyberTorrent.ru открытый BitTorrent BtList.ru рейтинг BitTorrent трекеров Яндекс.Метрика