Статистика раздачи
Размер:  10,75 GB   |    Зарегистрирован:  8 месяцев 7 дней   |    Скачан:  0 раз

Полного источника не было: Никогда

 
   
 
 

DR_KTO ®

Пол:
Не указан
Стаж:
8 месяцев 8 дней
Сообщений:
105

Симпсоны / The Simpsons-
  • Страна: США
  • Жанр: комедия, ситком, сатира
  • Продолжительность: ~00:22:00 (одной серии)
  • Год выпуска: 2008-2009
  • Перевод:
  • профессиональный (многоголосый, закадровый) - 2x2
  • профессиональный (многоголосый, закадровый) - VO-production
  • Русские субтитры: есть - Notabenoid
    -
  • Режиссёр: Мэтт Грейнинг
  • Роли озвучивали: Дэн Кастелланета, Хэнк Азариа, Джулия Кавнер, Нэнси Картрайт, Ярдли Смит, Гарри Ширер
    -
  • Описание:
  • «Си́мпсоны» (англ. The Simpsons) — самый длинный мультсериал в истории американского телевидения, длящийся 25 сезонов (теперь продлён до 26). Первая мини-серия «Good night» была показана в «Шоу Трейси Ульман» 19 апреля 1987 года. Демонстрация полноценных серий мультсериала началась 17 декабря 1989 года на канале FOX. Выпускается «Gracie Films» для кинокомпании «20th Century Fox». Мультсериал в настоящее время известен телезрителям более чем в 100 странах.
  • Это насыщенное сатирой (в том числе социальной) шоу высмеивает многие клише и стереотипы, в частности — стиль жизни «среднестатистического американца», особенности мировых культур в целом, знаменитостей и даже само телевидение и телеканал «Fox»; не стесняется затрагивать такие скользкие вопросы, как политика и религия: в частности, поднимались темы однополых браков, борьбы дарвинистов и креационистов, войны в Ираке.
  • Журнал Time в 1998 году назвал «Симпсонов» лучшим телевизионным сериалом XX века. 27 июля 2007 года в США прошла премьера полнометражного мультфильма с героями сериала, «The Simpsons Movie»; в России фильм получил название «Симпсоны в кино», его выход на экраны состоялся 16 августа 2007 года.
    -
  • Доп. информация:
  • Двадцатый сезон мультсериала «Симпсоны» — шёл в эфире с 28 сентября 2008 по 17 мая 2009 на телеканале Fox. Содержит 21 эпизод. Сезон был полностью выпущен на DVD и Blu-Ray 12 января 2010 года.
  • Производство двадцатого сезона было задержано из-за финансовых разногласий с актёрами озвучки. В результате было достигнуто соглашение о том, что шесть основных актёров будут получать рекордный гонорар — по 400 000 долларов США за эпизод. Однако, именно из-за забастовки сезон пришлось сократить на один эпизод — первоначально их планировалось 22.
  • Эпизод «Take My Life, Please», вышедший в эфир 15 февраля 2009, стал первым в истории сериала, созданным в формате High Definition. Начиная с этого эпизода, у сериала появилась также новая заставка.
    -
  • Релиз: BenderBEST
    -
  • Ссылка на предыдущие и альтернативные раздачи
  • Семпл:
  • 1-9 серии
  • 10-21 серии
    -
    Качество: BDRip 720p
    Формат: MKV
    Видео:
  • AVC, 960x720 (4:3), 23.976 fps, 2 553 Kbps (0.154 bit/pixel) - 1-9 серии
  • AVC, 1280x720 (16:9), 23.976 fps, 2 725 Kbps (0.123 bit/pixel) - 10-21 серии
  • Аудио:
  • AC-3, 48.0 KHz, 2 ch, 192 Kbps, CBR (Russian: 2x2)
  • AC-3, 48.0 KHz, 2 ch, 192 Kbps, CBR (Russian: VO-production)
  • AC-3, 48.0 KHz, 6 ch, 384 Kbps, CBR (English)
  • Субтитры: UTF-8 (Russian: Notabenoid)

    Список серий

  • 01. Секс, торты и глупости / Sex, Pies and Idiot Scrapes
  • 02. Потерянный мобильник / Lost Verizon
  • 03. Дважды, две, малчишечьи проблемы / Double, Double, Boy in Trouble
  • 04. Дом ужасов 19 / Treehouse of Horror XIX
  • 05. Опасные кривые / Dangerous Curves
  • 06. Гомер и Лиза обмениваются любезностями / Homer and Lisa Exchange Cross Words
  • 07. Майподы и динамит / Mypods and Boomsticks
  • 08. Бёрнс и пчёлы / The Burns and the Bees
  • 09. Лиза — королева драмы / Lisa the Drama Queen
  • 10. Забери мою жизнь, пожалуйста / Take My Life, Please
  • 11. Как был пройден тест / How the Test Was Won
  • 12. Больше никаких кредитов / No Loan Again, Naturally
  • 13. Прощай Мэгги, прощай / Gone Maggie Gone
  • 14. Во имя дедушки / In the Name of the Grandfather
  • 15. Свадебная катастрофа / Wedding for Disaster
  • 16. Эни Тени Мая Мо / Eeny Teeny Maya Moe
  • 17. Хороший, грустный и обдолбанный / The Good, the Sad and the Drugly
  • 18. Папа знает хуже / Father Knows Worst
  • 19. Вэверли Хиллз 9021-Д’оу / Waverly Hills 9-0-2-1-D'oh
  • 20. Четыре великие женщины и маникюр / Four Great Women and a Manicure
  • 21. Прибытие в Гомерику / Coming to Homerica
  • Подробные технические данные

    1-9 серии

    General
    Unique ID : 245189648453561213538856873926220589499 (0xB875CF007A764785892D6FA421F429BB)
    Complete name : C:\Users\Сергей\Downloads\The Simpsons. Season 20 (2008-2009) - BDRip 720p\01 (421). Sex, Pies and Idiot Scrapes.mkv
    Format : Matroska
    Format version : Version 2
    File size : 522 MiB
    Duration : 21mn 58s
    Overall bit rate : 3 322 Kbps
    Movie name : ReJIiZ MediaClub by BenderBEST
    Encoded date : UTC 2013-03-16 02:14:16
    Writing application : mkvmerge v4.0.0 ('The Stars were mine') сборка от Jun 6 2010 16:18:42
    Writing library : libebml v1.0.0 + libmatroska v1.0.0
    Video
    ID : 1
    Format : AVC
    Format/Info : Advanced Video Codec
    Format profile : High@L4.1
    Format settings, CABAC : Yes
    Format settings, ReFrames : 5 frames
    Codec ID : V_MPEG4/ISO/AVC
    Duration : 21mn 58s
    Bit rate : 2 553 Kbps
    Width : 960 pixels
    Height : 720 pixels
    Display aspect ratio : 4:3
    Frame rate mode : Constant
    Frame rate : 23.976 fps
    Color space : YUV
    Chroma subsampling : 4:2:0
    Bit depth : 8 bits
    Scan type : Progressive
    Bits/(Pixel*Frame) : 0.154
    Stream size : 391 MiB (75%)
    Writing library : x264 core 80 r1376 3feaec2
    Encoding settings : cabac=1 / ref=5 / deblock=1:0:0 / analyse=0x3:0x113 / me=umh / subme=7 / psy=1 / psy_rd=1.0:0.2 / mixed_ref=1 / me_range=16 / chroma_me=1 / trellis=1 / 8x8dct=1 / cqm=0 / deadzone=21,11 / fast_pskip=0 / chroma_qp_offset=-3 / threads=6 / sliced_threads=0 / nr=0 / decimate=1 / mbaff=0 / constrained_intra=0 / bframes=3 / b_pyramid=2 / b_adapt=1 / b_bias=0 / direct=1 / wpredb=1 / wpredp=2 / keyint=250 / keyint_min=25 / scenecut=40 / rc_lookahead=40 / rc=2pass / mbtree=1 / bitrate=2553 / ratetol=1.0 / qcomp=0.60 / qpmin=10 / qpmax=51 / qpstep=4 / cplxblur=20.0 / qblur=0.5 / ip_ratio=1.40 / aq=1:1.00
    Language : English
    Default : No
    Forced : No
    Audio #1
    ID : 2
    Format : AC-3
    Format/Info : Audio Coding 3
    Mode extension : CM (complete main)
    Format settings, Endianness : Big
    Codec ID : A_AC3
    Duration : 21mn 58s
    Bit rate mode : Constant
    Bit rate : 192 Kbps
    Channel(s) : 2 channels
    Channel positions : Front: L R
    Sampling rate : 48.0 KHz
    Bit depth : 16 bits
    Compression mode : Lossy
    Stream size : 30.2 MiB (6%)
    Title : 2x2
    Language : Russian
    Default : Yes
    Forced : No
    Audio #2
    ID : 3
    Format : AC-3
    Format/Info : Audio Coding 3
    Mode extension : CM (complete main)
    Format settings, Endianness : Big
    Codec ID : A_AC3
    Duration : 21mn 58s
    Bit rate mode : Constant
    Bit rate : 192 Kbps
    Channel(s) : 2 channels
    Channel positions : Front: L R
    Sampling rate : 48.0 KHz
    Bit depth : 16 bits
    Compression mode : Lossy
    Stream size : 30.2 MiB (6%)
    Title : VO-Production
    Language : Russian
    Default : No
    Forced : No
    Audio #3
    ID : 4
    Format : AC-3
    Format/Info : Audio Coding 3
    Mode extension : CM (complete main)
    Format settings, Endianness : Big
    Codec ID : A_AC3
    Duration : 21mn 58s
    Bit rate mode : Constant
    Bit rate : 384 Kbps
    Channel(s) : 6 channels
    Channel positions : Front: L C R, Side: L R, LFE
    Sampling rate : 48.0 KHz
    Bit depth : 16 bits
    Compression mode : Lossy
    Stream size : 60.4 MiB (12%)
    Language : English
    Default : No
    Forced : No
    Text
    ID : 5
    Format : UTF-8
    Codec ID : S_TEXT/UTF8
    Codec ID/Info : UTF-8 Plain Text
    Language : Russian
    Default : No
    Forced : No

    10-21 серии

    General
    Unique ID : 217558304398485451429637877851484390060 (0xA3AC348F236140358D13E898274502AC)
    Complete name : C:\Users\Сергей\Downloads\The Simpsons. Season 20 (2008-2009) - BDRip 720p\10 (430). Take My Life, Please.mkv
    Format : Matroska
    Format version : Version 2
    File size : 528 MiB
    Duration : 21mn 4s
    Overall bit rate : 3 501 Kbps
    Movie name : ReJIiZ MediaClub by BenderBEST
    Encoded date : UTC 2013-03-16 03:01:46
    Writing application : mkvmerge v4.0.0 ('The Stars were mine') сборка от Jun 6 2010 16:18:42
    Writing library : libebml v1.0.0 + libmatroska v1.0.0
    Video
    ID : 1
    Format : AVC
    Format/Info : Advanced Video Codec
    Format profile : High@L4.1
    Format settings, CABAC : Yes
    Format settings, ReFrames : 5 frames
    Codec ID : V_MPEG4/ISO/AVC
    Duration : 21mn 4s
    Bit rate : 2 725 Kbps
    Width : 1 280 pixels
    Height : 720 pixels
    Display aspect ratio : 16:9
    Frame rate mode : Constant
    Frame rate : 23.976 fps
    Color space : YUV
    Chroma subsampling : 4:2:0
    Bit depth : 8 bits
    Scan type : Progressive
    Bits/(Pixel*Frame) : 0.123
    Stream size : 402 MiB (76%)
    Writing library : x264 core 80 r1376 3feaec2
    Encoding settings : cabac=1 / ref=5 / deblock=1:0:0 / analyse=0x3:0x113 / me=umh / subme=7 / psy=1 / psy_rd=1.0:0.2 / mixed_ref=1 / me_range=16 / chroma_me=1 / trellis=1 / 8x8dct=1 / cqm=0 / deadzone=21,11 / fast_pskip=0 / chroma_qp_offset=-3 / threads=6 / sliced_threads=0 / nr=0 / decimate=1 / mbaff=0 / constrained_intra=0 / bframes=3 / b_pyramid=2 / b_adapt=1 / b_bias=0 / direct=1 / wpredb=1 / wpredp=2 / keyint=250 / keyint_min=25 / scenecut=40 / rc_lookahead=40 / rc=2pass / mbtree=1 / bitrate=2725 / ratetol=1.0 / qcomp=0.60 / qpmin=10 / qpmax=51 / qpstep=4 / cplxblur=20.0 / qblur=0.5 / ip_ratio=1.40 / aq=1:1.00
    Language : English
    Default : Yes
    Forced : No
    Audio #1
    ID : 2
    Format : AC-3
    Format/Info : Audio Coding 3
    Mode extension : CM (complete main)
    Format settings, Endianness : Big
    Codec ID : A_AC3
    Duration : 21mn 4s
    Bit rate mode : Constant
    Bit rate : 192 Kbps
    Channel(s) : 2 channels
    Channel positions : Front: L R
    Sampling rate : 48.0 KHz
    Bit depth : 16 bits
    Compression mode : Lossy
    Stream size : 28.9 MiB (5%)
    Title : 2х2
    Language : Russian
    Default : Yes
    Forced : No
    Audio #2
    ID : 3
    Format : AC-3
    Format/Info : Audio Coding 3
    Mode extension : CM (complete main)
    Format settings, Endianness : Big
    Codec ID : A_AC3
    Duration : 21mn 4s
    Bit rate mode : Constant
    Bit rate : 192 Kbps
    Channel(s) : 2 channels
    Channel positions : Front: L R
    Sampling rate : 48.0 KHz
    Bit depth : 16 bits
    Compression mode : Lossy
    Stream size : 28.9 MiB (5%)
    Title : VO-Production
    Language : Russian
    Default : No
    Forced : No
    Audio #3
    ID : 4
    Format : AC-3
    Format/Info : Audio Coding 3
    Mode extension : CM (complete main)
    Format settings, Endianness : Big
    Codec ID : A_AC3
    Duration : 21mn 4s
    Bit rate mode : Constant
    Bit rate : 384 Kbps
    Channel(s) : 6 channels
    Channel positions : Front: L C R, Side: L R, LFE
    Sampling rate : 48.0 KHz
    Bit depth : 16 bits
    Compression mode : Lossy
    Stream size : 57.9 MiB (11%)
    Language : English
    Default : No
    Forced : No
    Text
    ID : 5
    Format : UTF-8
    Codec ID : S_TEXT/UTF8
    Codec ID/Info : UTF-8 Plain Text
    Language : Russian
    Default : No
    Forced : No

    Скриншоты

    1-9 серии


    10-21 серии


    [www.cybertorrent.ru].t1918.torrent 
    Торрент: Зарегистрирован [ 2018-02-16 08:44 ] · C960DF701EC05ABAFBC64CA865E0DB3AE61121E6

    Скачать .torrent

    Скачать

    29 KB

    Статус: проверено
    Скачан: 0 раз
    Размер: 10,75 GB
    Профиль [ЛС]
    Показать сообщения:    

    Текущее время: 24-Окт 05:21

    Часовой пояс: UTC ± 0



    Вы не можете начинать темы
    Вы не можете отвечать на сообщения
    Вы не можете редактировать свои сообщения
    Вы не можете удалять свои сообщения
    Вы не можете голосовать в опросах
    Вы не можете прикреплять файлы к сообщениям
    Вы можете скачивать файлы
    Torrents24.ru открытый BitTorrent Torrents24.pl открытый BitTorrent CyberTorrent.ru открытый BitTorrent BtList.ru рейтинг BitTorrent трекеров Яндекс.Метрика