BitTorrent клиенты



Любовь не знает границ / Ishq Ke Parindey (Шакир Кхан / Shakir Khan) [2015, Индия, мелодрама, драма, HDRip] DVO (т/к Bollywood HD)

Ответить на тему
 
Автор Сообщение

Alex ®

Пол: Не указан

Стаж: 1 год

Сообщений: 855

Создавать темы 06-Фев-2018 00:58

[Цитировать]

Любовь не знает границ / Ishq Ke Parindey Страна: Индия
Выпущено: Shyam Motion Pictures
Жанр: мелодрама, драма
Год выпуска: 2015
Продолжительность: 01:53:24
Перевод: Профессиональный (двухголосый закадровый) т/к Bollywood HD
Субтитры: нет
Режиссер: Шакир Кхан / Shakir Khan
В ролях: Риши Верма, Приянка Мехта, Манджул Азад, Абид Юнус Кхан, Пран Давас, Муниша Рой, Ясир
Описание: Красивая и невинная пакистанская девушка Шин (Приянка Мехта) приезжает в Лакнау со своей семьей. Она встречает Фаиза (Риши Верма) и влюбляется в него, но эта любовь превращается в смертельную борьбу с их родными...
сведение звука: василиса- -
Качество видео: HDRip
Формат видео: AVI
Видео: XviD 720x304, 1600 Кбит/сек, 25 fps
Аудио: Русский - МР3, 128 Кбит/сек, 2 канала, 44,1 КГц

MediaInfo

Полное имя : Любовь не знает границ 2015, Индия, мелодрама, драма.avi
Формат : AVI
Формат/Информация : Audio Video Interleave
Размер файла : 1,38 Гбайт
Продолжительность : 1 ч. 53 м.
Общий поток : 1737 Кбит/сек
Программа кодирования : VirtualDubMod 1.5.10.2 (build 2540/release)
Библиотека кодирования : VirtualDubMod build 2540/release
Видео
Идентификатор : 0
Формат : MPEG-4 Visual
Профиль формата : Advanced Simple@L5
Настройки формата : BVOP2
Параметр BVOP формата : 2
Параметр QPel формата : Нет
Параметр GMC формата : Без точки перехода
Параметр матрицы формата : Default (MPEG)
Идентификатор кодека : XVID
Идентификатор кодека/Подсказка : XviD
Продолжительность : 1 ч. 53 м.
Битрейт : 1600 Кбит/сек
Ширина : 720 пикселей
Высота : 304 пикселя
Соотношение сторон : 2,35:1
Частота кадров : 25,000 кадров/сек
Цветовое пространство : YUV
Субдискретизация насыщенности : 4:2:0
Битовая глубина : 8 бит
Тип развёртки : Прогрессивная
Метод сжатия : С потерями
Бит/(Пиксели*Кадры) : 0.292
Размер потока : 1,27 Гбайт (92%)
Библиотека кодирования : XviD 1.2.1 (UTC 2008-12-04)
Аудио
Идентификатор : 1
Формат : MPEG Audio
Версия формата : Version 1
Профиль формата : Layer 3
Настройки формата : Joint stereo / MS Stereo
Режим : Joint stereo
Расширение режима : MS Stereo
Идентификатор кодека : 55
Идентификатор кодека/Подсказка : MP3
Продолжительность : 1 ч. 53 м.
Вид битрейта : Постоянный
Битрейт : 128 Кбит/сек
Каналы : 2 канала
Частота : 44,1 КГц
Метод сжатия : С потерями
Размер потока : 104 Мбайт (7%)
Выравнивание : Разделение по промежуткам
Продолжительность промежутка : 40 мс. (1,00 видеокадр)
Время предзагрузки промежутка : 500 мс.

Скриншот c названием фильма

-Ссылки на мои файлы Раздача
[Профиль] [ЛС]
Показать сообщения:    
Ответить на тему

Текущее время: 21-Фев 23:38

Часовой пояс: UTC + 3



Вы не можете начинать темы
Вы не можете отвечать на сообщения
Вы не можете редактировать свои сообщения
Вы не можете удалять свои сообщения
Вы не можете голосовать в опросах
Вы не можете прикреплять файлы к сообщениям
Вы можете скачивать файлы