BitTorrent клиенты



Пятеро заключённых / Paanch Qaidi (Шибу Митра / Shibu Mitra) [1981, Индия, боевик, драма, DVDRip] DVO (kraffty & Бахурани) + Sub Rus

Ответить на тему
 
Автор Сообщение

Alex ®

Пол: Не указан

Стаж: 1 год

Сообщений: 855

Создавать темы 06-Фев-2018 00:58

[Цитировать]

Пятеро заключённых / Paanch Qaidi Страна: Индия
Жанр: боевик, драма
Год выпуска: 1981
Продолжительность: 2:15:57
Перевод: Любительский (двухголосый закадровый) kraffty & Бахурани
Субтитры: русские (на песни)
Режиссер: Шибу Митра / Shibu Mitra
В ролях: Амджад Кхан, Ранджит, Шакти Капур, Раза Мурад, Виджаендра Гхатге, Маник Ирани, Ифтекхар, Хелен, Гириш Карнад, Сарика, Зарина Вахаб, Махендра Сандху, Дев Кумар, Виджу Кхоте
Описание: Инспектор Виджай по службе переведён в деревню, где бандит Даку Мангал Сингх преследует сельских жителей за борьбу с ним. В столкновении с Мангалом Сингхом инспектор теряет жену и сына. Виджай полон решимости освободить деревню от угроз бандитов с помощью пяти преступников. Вышестоящие власти не одобряют этого, но Виджай решает идти вперед с планом на свой страх и риск. Удастся ли инспектору и пяти преступникам добиться успеха в своей миссии...
Озвучка: kraffty & Бахурани
Перевод субтитров: Джанита
Перевод субтитров к песням и работа со звуком: larisa_k- - -Качество видео: DVDRip
Формат видео: AVI
Видео: XviD 512x384, 984 kbps, 29.97 fps
Аудио: AC3, 192 kbps, 48 kHz, 2 stereo
Формат субтитров: softsub (SRT)
Доп. информация о субтитрах: только на песни

MediaInfo

Общее
Полное имя : Пятеро заключённых Paanch Qaidi (Индия, 1981, боевик).avi
Формат : AVI
Формат/Информация : Audio Video Interleave
Размер файла : 1,13 Гбайт
Продолжительность : 2 ч. 15 м.
Общий поток : 1188 Кбит/сек
Программа кодирования : VirtualDubModRus 1.5.10.2 (build 2542/release)
Библиотека кодирования : VirtualDubMod build 2542/release
Видео
Идентификатор : 0
Формат : MPEG-4 Visual
Профиль формата : Advanced Simple@L5
Настройки формата : BVOP1 / Custom Matrix
Параметр BVOP формата : 1
Параметр QPel формата : Нет
Параметр GMC формата : Без точки перехода
Параметр матрицы формата : Выборочная
Идентификатор кодека : XVID
Идентификатор кодека/Подсказка : XviD
Продолжительность : 2 ч. 15 м.
Битрейт : 984 Кбит/сек
Ширина : 512 пикселей
Высота : 384 пикселя
Соотношение сторон : 4:3
Частота кадров : 29,970 (30000/1001) кадров/сек
Цветовое пространство : YUV
Субдискретизация насыщенности : 4:2:0
Битовая глубина : 8 бит
Тип развёртки : Прогрессивная
Метод сжатия : С потерями
Бит/(Пиксели*Кадры) : 0.167
Размер потока : 957 Мбайт (83%)
Библиотека кодирования : XviD 1.2.1 (UTC 2008-12-04)
Аудио
Идентификатор : 1
Формат : AC-3
Формат/Информация : Audio Coding 3
Параметр Endianness формата : Big
Идентификатор кодека : 2000
Продолжительность : 2 ч. 15 м.
Вид битрейта : Постоянный
Битрейт : 192 Кбит/сек
Каналы : 2 канала
Расположение каналов : Front: L R
Частота : 48,0 КГц
Частота кадров : 31,250 кадров/сек (1536 SPF)
Битовая глубина : 16 бит
Метод сжатия : С потерями
Размер потока : 187 Мбайт (16%)
Выравнивание : Разделение по промежуткам
Продолжительность промежутка : 33 мс. (1,00 видеокадр)
Время предзагрузки промежутка : 500 мс.
ServiceKind/String : Complete Main

Скриншот c названием фильма

Ссылки на мои файлы Раздача
[Профиль] [ЛС]
Показать сообщения:    
Ответить на тему

Текущее время: 20-Фев 06:51

Часовой пояс: UTC + 3



Вы не можете начинать темы
Вы не можете отвечать на сообщения
Вы не можете редактировать свои сообщения
Вы не можете удалять свои сообщения
Вы не можете голосовать в опросах
Вы не можете прикреплять файлы к сообщениям
Вы можете скачивать файлы