Статистика раздачи
Размер:  746 MB   |    Зарегистрирован:  6 месяцев 5 дней   |    Скачан:  0 раз

Полного источника не было: Никогда

 
   
 
 

Ласточка ®

Пол:
Не указан
Стаж:
6 месяцев 6 дней
Сообщений:
451

Включите северное сияние
30/09/17 торрент обновлен, запись трансляции ТК "ТВЦ" заменена записью трансляции ТК "ОТР". Преимущества на сравнении
Жанр: детский фильм
Год выпуска: 1972
Продолжительность: 01:15:38
Режиссёр: Радомир Василевский
В ролях: Ольга Казакова, Костя Леневский, Игорь Меркулов, Елена Легурова, Евгений Леонов-Гладышев, Т. Пегова, Люсьена Овчинникова, Константин Степанков, Валерий Рыжаков, Иван Рыжов, Таисия Котеничева, Ольга Матешко, Пётр Соболевский, Георгий Милляр, Валентина Телегина, Миша Шунин
Описание: Коля Чимбарцев приехал из Одессы в северный порт Красин, чтобы жить и учиться в школе-интернате. Отец, находящийся на гидропосту, не смог встретить сына.
Доп. информация: Запись потока *.ts со спутника EUTELSAT 36A/B, 36° в.д., ремукс в *.mkv программой VideoReDo..
Качество видео: DVB
Формат видео: MKV
Видео: Advanced Video Codec, 720(1048)x576 (16:9), 25,000 кадров/сек, 1160 Кбит/сек
Аудио: MPEG Audio, 48,0 КГц, 192 Кбит/сек, 2 канала

MediaInfo

Общее
Уникальный идентификатор : 86563968116356608423974894942268335474 (0x411F9D23F6F49DD847A778C03D76A572)
Полное имя : D:\MPG\ВКЛЮЧИТЕ СЕВЕРНОЕ СИЯНИЕ (ОТР).mkv
Формат : Matroska
Версия формата : Version 2
Размер файла : 746 Мбайт
Продолжительность : 1 ч. 15 м.
Общий поток : 1380 Кбит/сек
Программа кодирования : Lavf52.64.2
Библиотека кодирования : Lavf52.64.2
Видео
Идентификатор : 1
Формат : AVC
Формат/Информация : Advanced Video Codec
Профиль формата : High@L3
Параметр CABAC формата : Да
Параметр ReFrames формата : 4 кадра
Идентификатор кодека : V_MPEG4/ISO/AVC
Продолжительность : 1 ч. 15 м.
Битрейт : 1160 Кбит/сек
Ширина : 720 пикселей
Высота : 576 пикселей
Соотношение сторон : 16:9
Соотношение сторон в оригинале : 16:9
Режим частоты кадров : Постоянный
Частота кадров : 25,000 кадров/сек
Стандарт вещания : Component
Цветовое пространство : YUV
Субдискретизация насыщенности : 4:2:0
Битовая глубина : 8 бит
Тип развёртки : Чересстрочная
Метод сохранения типа развёртки : Раздельные поля
Порядок развёртки : Верхнее поле первое
Бит/(Пиксели*Кадры) : 0.112
Размер потока : 628 Мбайт (84%)
Default : Да
Forced : Нет
Цветовой диапазон : Limited
Основные цвета : BT.601 PAL
Характеристики трансфера : BT.470 System B, BT.470 System G
Коэффициенты матрицы : BT.601
Аудио
Идентификатор : 2
Формат : MPEG Audio
Версия формата : Version 1
Профиль формата : Layer 2
Идентификатор кодека : A_MPEG/L2
Идентификатор кодека/Подсказка : MP2
Продолжительность : 1 ч. 15 м.
Вид битрейта : Постоянный
Битрейт : 192 Кбит/сек
Каналы : 2 канала
Частота : 48,0 КГц
Метод сжатия : С потерями
Размер потока : 104 Мбайт (14%)
Язык : Russian
Default : Да
Forced : Нет
[www.cybertorrent.ru].t1891.torrent 
Торрент: Зарегистрирован [ 2018-02-16 08:44 ] · 4B32672F7F288A280691813BF6C373DECA00B5CC

Скачать .torrent

Скачать

15 KB

Статус: проверено
Скачан: 0 раз
Размер: 746 MB
Профиль [ЛС]
Показать сообщения:    

Текущее время: 21-Авг 13:26

Часовой пояс: UTC ± 0



Вы не можете начинать темы
Вы не можете отвечать на сообщения
Вы не можете редактировать свои сообщения
Вы не можете удалять свои сообщения
Вы не можете голосовать в опросах
Вы не можете прикреплять файлы к сообщениям
Вы можете скачивать файлы
Torrents24.ru открытый BitTorrent Torrents24.pl открытый BitTorrent CyberTorrent.ru открытый BitTorrent BtList.ru рейтинг BitTorrent трекеров Яндекс.Метрика