BitTorrent клиенты



Народный гараж / Доброе сердце / Janatha Garage (Шива Коратала / Siva Koratala) [2016, Индия, Боевик, мелодрама] MVO (SDI Media) + Sub Rus (песни)

Ответить на тему
 
Автор Сообщение

Alex ®

Пол: Не указан

Стаж: 1 год

Сообщений: 855

Создавать темы 06-Фев-2018 00:59

[Цитировать]

Народный гараж / Доброе сердце / Janatha Garage
-Страна: Индия
Жанр: Боевик, мелодрама
Год выпуска: 2016
Продолжительность: 02:31:06-Перевод: Профессиональный (многоголосый закадровый) - SDI Media (т/к Индия ТВ) [в промежутке 02:15:20 - 02:19:40 DVO от ССГ Озвучка]
Субтитры: Есть (песни, эпизод без проф. перевода)--Режиссер: Шива Коратала / Siva Koratala-В ролях: Моханлал, НТР-мл, Саманта Рут Прабху, Нитья Менен, Аджай, Каджал--Описание: Эта история о семье, которая помогала людям, попавшим в беду. 1980 год. Два брата переезжают в Хайдарабад и открывают там своё дело по автосервису. Добросовестная работа "Народного гаража", как называется их автомастерская, не остается незамеченной и бизнес процветает. Однажды братья узнают, что у одного из клиентов случилась ужасная трагедия, - его дочь, студентка колледжа, пала жертвой четырех мерзавцев, которые изнасиловали и убили ее. Этот случай изменил прямое назначение "Народного гаража"... Прошло много лет... Ананд - студент Экологического университета, живущий в Мумбае, посвящает свою жизнь и свободное время защите окружающей среды. По воле случая, Ананд знакомится с "Народным Гаражом", и это знакомство меняет всю его жизнь...--IMDb | Кинопоиск--Качество видео: WEB-DLRip
Формат видео: AVI-Видео: 688x288 (2.39:1), 25 fps, XviD build 50 ~1244 kbps avg, 0.25 bit/pixel
Аудио: 48 kHz, MPEG Layer 3, 2 ch, ~128.00 kbps---Сэмпл / Sample--Релиз и Deewana
Перевод субтитров: Olga1976, редакция Ларри (спасибо!)
Запись с канала: василисса (спасибо!)
Риппер, синхрон. звука: soso4eg
Доп. информация: Телеканал вырезал небольшой фрагмент, поэтому эпизод с 02:15:20 - 02:19:40 идет с русскими субтитрами от РГ Deewana. За помощь с субтитрами большое спасибо Ратюсе-- --

Скриншот с названием

-

Скриншоты

-

MI

General
Complete name : F:\1_1\Janatha.Garage.2016.P.Web-DLRip.XviD.BwTorrents.Deewana.avi
Format : AVI
Format/Info : Audio Video Interleave
File size : 1.46 GiB
Duration : 2h 31mn
Overall bit rate : 1 382 Kbps
Writing application : VirtualDubMod 1.5.10.2 (build 2540/release)
Video
ID : 0
Format : MPEG-4 Visual
Format profile : Advanced Simple@L5
Format settings, BVOP : 2
Format settings, QPel : No
Format settings, GMC : No warppoints
Format settings, Matrix : Default (H.263)
Codec ID : XVID
Codec ID/Hint : XviD
Duration : 2h 31mn
Bit rate : 1 244 Kbps
Width : 688 pixels
Height : 288 pixels
Display aspect ratio : 2.40:1
Frame rate : 25.000 fps
Color space : YUV
Chroma subsampling : 4:2:0
Bit depth : 8 bits
Scan type : Progressive
Compression mode : Lossy
Bits/(Pixel*Frame) : 0.251
Stream size : 1.31 GiB (90%)
Writing library : XviD 1.2.1 (UTC 2008-12-04)
Audio
ID : 1
Format : MPEG Audio
Format version : Version 1
Format profile : Layer 3
Mode : Joint stereo
Codec ID : 55
Codec ID/Hint : MP3
Duration : 2h 31mn
Bit rate mode : Constant
Bit rate : 128 Kbps
Channel(s) : 2 channels
Sampling rate : 48.0 KHz
Compression mode : Lossy
Stream size : 138 MiB (9%)
Alignment : Aligned on interleaves
Interleave, duration : 40 ms (1.00 video frame)
Interleave, preload duratio : 504 ms
-
[Профиль] [ЛС]
Показать сообщения:    
Ответить на тему

Текущее время: 19-Фев 16:18

Часовой пояс: UTC + 3



Вы не можете начинать темы
Вы не можете отвечать на сообщения
Вы не можете редактировать свои сообщения
Вы не можете удалять свои сообщения
Вы не можете голосовать в опросах
Вы не можете прикреплять файлы к сообщениям
Вы можете скачивать файлы