BitTorrent клиенты



Здравствуй, река! (Павел Арсенов, Юрий Григорьев, Игорь Ясулович) [1978, детский, Screener]

Ответить на тему
 
Автор Сообщение

Angel ®

Пол: Не указан

Стаж: 1 год

Сообщений: 1346

Создавать темы 06-Фев-2018 00:59

[Цитировать]

Здравствуй, река! Год выпуска: 1978.
Жанр: детский.
Продолжительность: 00:59:49.
Режиссер: Павел Арсенов, Юрий Григорьев, Игорь Ясулович.
В ролях:
Костя Жалтов, Татьяна Пельтцер, Валентина Теличкина, Саша Торопов, Катя Сычева, Алеша Запруднов, Аня Турчан.
Описание:
Маленький мальчик Стёпка очень любил слушать перед сном сказки, которые сочиняла его мама. И вот однажды она рассказала ему о реке, возле которой они жили. Это была большая и могучая река, но она нуждалась в защите и заботе человека. Утром мама не нашла Стёпку — он ушел искать исток реки. Так начались Степкины приключения…
Доп. информация:
Страна: СССР .
Киностудия: Киностудия им. Горького.
Авторы сценария: Владимир Трифонов, Дмитрий Иванов.
Оператор: Александр Масс.
Композитор: Эдуард Артемьев.
Художник: Дмитрий Богородский.
Премьера: апрель 1979 года.

Релиз
Большое спасибо NickK88442200 за предоставленый материал для рипа!!!

Качество: Screener
Формат: AVI
Видео: 688x528 (1.30:1), 25 fps, XviD build 73 ~2399 kbps avg, 0.26 bit/pixel
Аудио: 48 kHz, AC3 Dolby Digital, 2/0 (L,R) ch, ~192 kbps

Отчет MI

General
Complete name : Zdravstvuj.reka.1978.XviD.SCR.fenixclub_1,09.avi
Format : AVI
Format/Info : Audio Video Interleave
File size : 1.09 GiB
Duration : 59mn 49s
Overall bit rate : 2 602 Kbps
Writing application : VirtualDubMod 1.5.10.3 | www.virtualdub-fr.org || (build 2550/release)
Writing library : VirtualDubMod build 2550/release
Video
ID : 0
Format : MPEG-4 Visual
Format profile : Advanced Simple@L5
Format settings, BVOP : 1
Format settings, QPel : No
Format settings, GMC : No warppoints
Format settings, Matrix : Custom
Codec ID : XVID
Codec ID/Hint : XviD
Duration : 59mn 49s
Bit rate : 2 400 Kbps
Width : 688 pixels
Height : 528 pixels
Display aspect ratio : 4:3
Frame rate : 25.000 fps
Color space : YUV
Chroma subsampling : 4:2:0
Bit depth : 8 bits
Scan type : Progressive
Compression mode : Lossy
Bits/(Pixel*Frame) : 0.264
Stream size : 1.00 GiB (92%)
Writing library : XviD 73
Audio
ID : 1
Format : AC-3
Format/Info : Audio Coding 3
Mode extension : CM (complete main)
Format settings, Endianness : Big
Codec ID : 2000
Duration : 59mn 49s
Bit rate mode : Constant
Bit rate : 192 Kbps
Channel(s) : 2 channels
Channel positions : Front: L R
Sampling rate : 48.0 KHz
Frame rate : 31.250 fps (1536 spf)
Compression mode : Lossy
Stream size : 82.1 MiB (7%)
Alignment : Split accross interleaves
Interleave, duration : 40 ms (1.00 video frame)
Interleave, preload duratio : 500 ms.

Скриншоты


[Профиль] [ЛС]
Показать сообщения:    
Ответить на тему

Текущее время: 22-Фев 23:59

Часовой пояс: UTC + 3



Вы не можете начинать темы
Вы не можете отвечать на сообщения
Вы не можете редактировать свои сообщения
Вы не можете удалять свои сообщения
Вы не можете голосовать в опросах
Вы не можете прикреплять файлы к сообщениям
Вы можете скачивать файлы