Статистика раздачи
Размер:  721 MB   |    Зарегистрирован:  4 месяца 4 дня   |    Скачан:  0 раз

Полного источника не было: Никогда

 
   
 
 

lom ®

Пол:
Не указан
Стаж:
4 месяца 5 дней
Сообщений:
107

Наруто - Бой в Деревне Скрытых Водопадов. Я герой!
Naruto: Battle at Hidden Falls. I am the Hero!

-Год выпуска: 2003
Страна: Япония
Жанр: приключения, комедия, боевые искусства, сёнэн
Продолжительность: 40 мин.
Тип: Special-Режиссёр: Хаято Датэ-Субтитры: Русские, от Alex & Julia
Перевод - Alex; Оформление - Alex & Mr. Taktik; Редактирование - Julia & AlucoST; Тайминг - Alex; Ре-тайминг - SOFCJ-Описание: Во втором спецвыпуске повествуется о том времени, когда Наруто, Саске и Сакура проходили обучение под присмотром Какаши. Это история о миссии ранга C, которая оказалась не так проста, как выглядела в начале. Троица молодых ниндзя невольно втянута в битву за Воду Героев....-Качество: DVDRip [SOFCJ-Raws]
Скачать: Cэмпл
Формат видео: MKV
Видео кодек: H.264
Аудио кодек: AC3
Видео: MPEG4 Video (H264) 640x480 29.97fps 8bit 2 263 Kbps
Аудио: Dolby AC3 48000Hz stereo 192 Kbps
Субтитры: Русские .srt (отдельным файлом)

Скриншоты

MediaInfo

Format : Matroska
Format version : Version 4 / Version 2
File size : 721 MiB
Duration : 40mn 13s
Overall bit rate : 2 505 Kbps
Movie name : [SOFCJ-Raws] Naruto OVA 2 - Mission Protect The Waterfall Village! (DVD 640x480 x264 AC3)
Encoded date : UTC 2010-02-22 21:41:31
Writing application : mkvmerge v5.9.0 ('On The Loose') built on Dec 9 2012 15:37:01
Writing library : libebml v1.3.0 + libmatroska v1.4.0
Video
ID : 1
Format : AVC
Format/Info : Advanced Video Codec
Format profile : High@L3.1
Format settings, CABAC : Yes
Format settings, ReFrames : 8 frames
Codec ID : V_MPEG4/ISO/AVC
Duration : 40mn 13s
Bit rate : 2 263 Kbps
Width : 640 pixels
Height : 480 pixels
Display aspect ratio : 4:3
Frame rate mode : Constant
Frame rate : 29.970 fps
Color space : YUV
Chroma subsampling : 4:2:0
Bit depth : 8 bits
Scan type : Progressive
Bits/(Pixel*Frame) : 0.246
Stream size : 651 MiB (90%)
Writing library : x264 core 142 r2409+41 9f37d41 tMod [8-bit@all X86_64]
Encoding settings : cabac=1 / ref=8 / deblock=1:0:0 / analyse=0x3:0x133 / me=umh / subme=9 / psy=1 / fade_compensate=0.00 / psy_rd=1.00:0.00 / mixed_ref=1 / me_range=16 / chroma_me=1 / trellis=2 / 8x8dct=1 / cqm=0 / deadzone=21,11 / fast_pskip=0 / chroma_qp_offset=-2 / threads=12 / lookahead_threads=1 / sliced_threads=0 / nr=0 / decimate=1 / interlaced=0 / bluray_compat=0 / constrained_intra=0 / fgo=0 / bframes=4 / b_pyramid=2 / b_adapt=2 / b_bias=0 / direct=3 / weightb=1 / open_gop=0 / weightp=2 / keyint=250 / keyint_min=25 / scenecut=40 / intra_refresh=0 / rc_lookahead=50 / rc=crf / mbtree=1 / crf=12.9000 / qcomp=0.60 / qpmin=0:0:0 / qpmax=69:69:69 / qpstep=4 / ip_ratio=1.40 / aq=1:1.00 / aq-sensitivity=10.00 / aq-factor=1.00:1.00:1.00 / aq2=0 / aq3=0
Language : Japanese
Default : Yes
Forced : No
Color primaries : BT.709
Transfer characteristics : BT.709
Matrix coefficients : BT.709
Audio
ID : 2
Format : AC-3
Format/Info : Audio Coding 3
Mode extension : CM (complete main)
Format settings, Endianness : Big
Codec ID : A_AC3
Duration : 40mn 13s
Bit rate mode : Constant
Bit rate : 192 Kbps
Channel(s) : 2 channels
Channel positions : Front: L R
Sampling rate : 48.0 KHz
Bit depth : 16 bits
Compression mode : Lossy
Stream size : 55.2 MiB (8%)
Language : Japanese
Default : Yes
Forced : No

Отличия от существующих раздач

Тут DVD5
http://cybertorrent.ru/viewtopic.php?t=4072658
- у меня DVDRip
От этой
http://cybertorrent.ru/viewtopic.php?t=3567673
- лучшее качество видео. Сравнение.
От этой
http://cybertorrent.ru/viewtopic.php?t=1054568
- лучшее качество видео. Сравнение.
От этой
http://cybertorrent.ru/viewtopic.php?t=4279161
- лучшее качество видео. Сравнение.
От этой
http://cybertorrent.ru/viewtopic.php?t=4279176
- лучшее качество видео. Сравнение.

Раздачи SOFCJ по вселенной "Наруто"

  • Наруто: Ураганные хроники · HDTVRip 720p · HDTVRip HWP
  • Фильмы ::
  • Защитить принцессу страны Снега · HDTVRip 720p · BDRip 720p · BDRip 1080p - после 100 эп.
  • Призрачные руины в недрах земли · HDTVRip 720p · BDRip 720p · BDRip 1080p - после 141 эп.
  • Бунт зверей на острове Месяца · HDTVRip 720p · BDRip 720p · BDRip 1080p - после 147 эп.
  • фильм первый · BDRip 1080p · BDRemux 1080i - после 32 эп.
  • Узы · BDRip 1080p · BDRemux 1080p - после 71 эп.
  • Наследники Воли Огня · BDRemux 1080p - после 120 эп.
  • Затерянная башня · DVDRip · HDTVRip 720p · BDRip 720p · BDRip 1080p · BDRemux 1080p - после 171 эп.
  • Кровавая тюрьма · DVDRip · HDTVRip 720p · BDRip 720p · BDRip 1080p · BDRemux 1080i - после 222 эп.
  • Путь ниндзя · BDRip 720p · BDRip 1080p · BDRemux 1080p - после 271 эп. | Пролог 311 эп.
  • 2 0 1 4 · релиз на DVD и Blu-ray в 2015 г.
  • ОВА ::
  • Поиски четырёхлистного алого клевера - после 19 эп.
  • Отчаянная схватка в деревне Скрытого Водопада: я герой! · DVDRip - после 53 эп.
  • Большой спортивный фестиваль Конохи · HDTVRip 720p · BDRip 720p · BDRip 1080p - доп. к 1-ому фильму
  • Наконец-то схватка! Джонины против генинов!! Большой бойцовский турнир!! · DVDRip - после 100 эп.
  • Пересечение дорог - после 19 эп., но лучше см. после 36 эп., а вот по окончанию титров - после половины 142 эп.
  • Джин и три желания!! · BDRip 720p · BDRip 1080p · BDRemux 1080p - доп. к 7-ому фильму / после 100 эп.
  • Наруто x UT - музыкально видео · DVDRip · DVD5 - после 253 эп.
  • Пылающий экзамен на чунина! Наруто против Конохамару!! · BDRip 720p · BDRemux 1080i - доп. к 8-ому фильму
  • Серия анимационных роликов из игры "Ultimate Ninja Storm Generations"
  • Братья Учиха, Мангекьё Шаринган, курочки и глазунья!
  • Серия анимационных роликов из игры "Ultimate Ninja Storm Revolution"Прим.: ТВ-1| ТВ-2

Раздачи SOFCJ по вселенной "Ван-Пис"

  • Ван-Пис
  • Фильмы ::
  • The Great Gold Pirate - после 18 эп.
  • Clockwork Island Adventure - после 45 эп.
  • Chopper’s Kingdom on the Island of Strange Animals - после 95 эп.
  • Dead End Adventure · BDRemux 1080p - после 146 эп.
  • The Cursed Holy Sword · BDRemux 1080p - после 183 эп.
  • Baron Omatsuri and the Secret Island · BDRip 720p · BDRemux 1080p - после 224 эп.
  • Giant Mecha Soldier of Karakuri Castle · BDRip 720p · BDRemux 1080p - после 268 эп.
  • The Desert Princess and the Pirates: Adventures in Alabasta · BDRip 1080p · BDRemux 1080p - компиляция 93-130 эп.
  • Episode of Chopper Plus: Bloom in the Winter, Miracle Cherry Blossom · BDRip 720p · BDRip 1080p · BDRemux 1080p - компиляция 78-92 эп.
  • Strong World · BDRemux 1080p - после 429 эп.
  • Film Z · BDRemux 1080p - после 578 эп.
  • Спешлы ::
  • Episode of Nami · BDRip 1080p - компиляция 31-45 эп.
  • Episode of Luffy: Hand Island Adventure · HDTVRip 720p · BDRip 720p · BDRip 1080p · BDRemux 1080i - после 578 эп.
[www.cybertorrent.ru].t1875.torrent 
Торрент: Зарегистрирован [ 2018-02-16 08:44 ] · F8AB6B7518E3A78598AD78F360E48DFC72C2B003

Скачать .torrent

Скачать

15 KB

Статус: проверено
Скачан: 0 раз
Размер: 721 MB
Профиль [ЛС]
Показать сообщения:    

Текущее время: 21-Июн 08:10

Часовой пояс: UTC ± 0



Вы не можете начинать темы
Вы не можете отвечать на сообщения
Вы не можете редактировать свои сообщения
Вы не можете удалять свои сообщения
Вы не можете голосовать в опросах
Вы не можете прикреплять файлы к сообщениям
Вы можете скачивать файлы