Статистика раздачи
Размер:  14,66 GB   |    Зарегистрирован:  6 месяцев 1 день   |    Скачан:  0 раз

Полного источника не было: Никогда

 
   
 
 

AleXa ®

Пол:
Не указан
Стаж:
6 месяцев 2 дня
Сообщений:
51

Футурама / Futurama
Сезон 7Б / Volume 8
1080р
Страна: США
Жанр: Фантастика, комедия
Продолжительность: 0:21:38
Год выпуска: 2013
Перевод:
Двухголосый закадровый: 2x2, Кубик в Кубе
Многоголосый закадровый: LostFilm, VO-production
Русские субтитры: НФСФ
Автор идеи: Мэтт Грёйнинг / Matt Groening
Режиссёр: Фрэнк Марино, Дуэйн Кэри-Хилл, Стивен Сандовал, Кристалл Чесни-Томпсон...
Роли озвучивали: Билли Уэст, Кейти Сэгал, Джон ДиМаджио, Фил ЛаМарр, Лоурэн Том и др.
Описание: Сериал начинается с того, что разносчик пиццы из Нью-Йорка Филипп Джей Фрай случайно, как это кажется на первый взгляд, был заморожен в криогенной камере ровно в 00 часов 00 минут 00 секунд 1 января 2000 года. Он был разморожен тысячу лет спустя, 31 декабря 2999 года, и обнаружил себя в городе будущего Нью-Нью-Йорке. Пытаясь избежать принудительного назначения на работу курьером, кем он и был в прошлой жизни, Фрай познакомился со своими будущими коллегами - Турангой Лилой, роботом Бендером и пра-пра-пра-…-пра-внучатым племянником Хьюбертом Фарнсвортом — маразматичным 160-летним гениальным ученым-склеротиком, который берёт их на работу в свою небольшую компанию «Межпланетный экспресс», занимающуюся межгалактическими грузоперевозками. «Межпланетный экспресс» — это маленький бизнес профессора, окупающий его гениальные, но иногда весьма сомнительные исследования и изобретения.
Доп. информация: Синхронизация и удаление рекламы дорожек VO-production выполнены без пережатия, 2x2 без сохранения тона.
Спасибо!
Антифеминист - Обработка дорожек Кубик в Кубе, LostFilm
#Antisnl# - захват вещания 2х2
Студиям Кубик в Кубе, LostFilm, VO-production, телеканалу 2х2

Список серий:

7ACV14 Forty Percent Leadbelly
7ACV15 2-D Blacktop
7ACV16 T.: The Terrestrial
7ACV17 Fry and Leela’s Big Fling
7ACV18 The Inhuman Torch
7ACV19 Saturday Morning Fun Pit
7ACV20 Calculon 2.0
7ACV21 Assie Come Home
7ACV22 Leela and the Genestalk
7ACV23 Game of Tones.
7ACV24 Murder on the Planet Express
7ACV25 Stench and Stenchibility
7ACV26 Meanwhile
Семпл: Futurama7ACV14-26.1080p.BDrip.4xRus
Качество: BDRip 1080p
Формат: MKV
Видео: MPEG4/AVC (x264), 1920x1080, 23,976fps, 4 731kbps
Аудио 1: Русский, AC3, 48kHz, 2.0ch, 192kbps 2x2
Аудио 2: Русский, AC3, 48kHz, 5.1ch, 448kbps Кубик в Кубе
Аудио 3: Русский, AC3, 48kHz, 2.0ch, 192kbps LostFilm
Аудио 4: Русский, AC3, 48kHz, 2.0ch, 256kbps VO-production
Аудио 5: Английский, Core DTS, 48kHz, 5.1ch, 1509kbps
Субтитры: Русские НФСФ, английские

Подробные технические данные

General
Unique ID : 209960126059737483651281487815939022787 (0x9DF4D971A92C8F8490A463DC89D15FC3)
Complete name : F:\Futurama Volume 8.BDRip1080p.4xRus.Eng\7ACV17 Fry and Leela's Big Fling.1080p.BDRip.4xRus.Eng.mkv
Format : Matroska
Format version : Version 2
File size : 1.11 GiB
Duration : 21mn 38s
Overall bit rate : 7 330 Kbps
Movie name : Futurama 7ACV17 Fry and Leela's Big Fling
Encoded date : UTC 2014-04-27 11:51:05
Writing application : mkvmerge v5.4.0 ('Piper') built on Mar 10 2012 13:34:39
Writing library : libebml v1.2.3 + libmatroska v1.3.0
Video
ID : 1
Format : AVC
Format/Info : Advanced Video Codec
Format profile : High@L4.1
Format settings, CABAC : Yes
Format settings, ReFrames : 4 frames
Codec ID : V_MPEG4/ISO/AVC
Duration : 21mn 38s
Bit rate : 4 731 Kbps
Width : 1 920 pixels
Height : 1 080 pixels
Display aspect ratio : 16:9
Frame rate mode : Constant
Frame rate : 23.976 fps
Color space : YUV
Chroma subsampling : 4:2:0
Bit depth : 8 bits
Scan type : Progressive
Bits/(Pixel*Frame) : 0.095
Stream size : 710 MiB (63%)
Title : 7ACV17-Fry and Leela's Big Fling.1080p
Writing library : x264 core 142 r2389 956c8d8
Encoding settings : cabac=1 / ref=4 / deblock=1:-1:0 / analyse=0x3:0x113 / me=tesa / subme=10 / psy=1 / psy_rd=0.65:0.15 / mixed_ref=1 / me_range=32 / chroma_me=1 / trellis=2 / 8x8dct=1 / cqm=0 / deadzone=21,11 / fast_pskip=0 / chroma_qp_offset=-3 / threads=2 / lookahead_threads=1 / sliced_threads=0 / nr=0 / decimate=0 / interlaced=0 / bluray_compat=0 / constrained_intra=0 / bframes=8 / b_pyramid=2 / b_adapt=2 / b_bias=0 / direct=1 / weightb=1 / open_gop=0 / weightp=2 / keyint=240 / keyint_min=24 / scenecut=40 / intra_refresh=0 / rc=2pass / mbtree=0 / bitrate=4731 / ratetol=1.0 / qcomp=0.60 / qpmin=0 / qpmax=69 / qpstep=4 / cplxblur=20.0 / qblur=0.5 / ip_ratio=1.40 / pb_ratio=1.30 / aq=2:0.60
Language : English
Default : Yes
Forced : No
Color primaries : BT.709
Transfer characteristics : BT.709
Matrix coefficients : BT.709
Audio #1
ID : 2
Format : AC-3
Format/Info : Audio Coding 3
Mode extension : CM (complete main)
Format settings, Endianness : Big
Codec ID : A_AC3
Duration : 21mn 38s
Bit rate mode : Constant
Bit rate : 192 Kbps
Channel(s) : 2 channels
Channel positions : Front: L R
Sampling rate : 48.0 KHz
Bit depth : 16 bits
Compression mode : Lossy
Stream size : 29.7 MiB (3%)
Title : DD 2.0 2x2
Language : Russian
Default : Yes
Forced : No
Audio #2
ID : 3
Format : AC-3
Format/Info : Audio Coding 3
Mode extension : CM (complete main)
Format settings, Endianness : Big
Codec ID : A_AC3
Duration : 21mn 38s
Bit rate mode : Constant
Bit rate : 448 Kbps
Channel(s) : 6 channels
Channel positions : Front: L C R, Side: L R, LFE
Sampling rate : 48.0 KHz
Bit depth : 16 bits
Compression mode : Lossy
Stream size : 69.3 MiB (6%)
Title : DD 5.1 Kubik v Kube
Language : Russian
Default : No
Forced : No
Audio #3
ID : 4
Format : AC-3
Format/Info : Audio Coding 3
Mode extension : CM (complete main)
Format settings, Endianness : Big
Codec ID : A_AC3
Duration : 21mn 38s
Bit rate mode : Constant
Bit rate : 192 Kbps
Channel(s) : 2 channels
Channel positions : Front: L R
Sampling rate : 48.0 KHz
Bit depth : 16 bits
Compression mode : Lossy
Stream size : 29.7 MiB (3%)
Title : DD 2.0 LostFilm
Language : Russian
Default : No
Forced : No
Audio #4
ID : 5
Format : AC-3
Format/Info : Audio Coding 3
Mode extension : CM (complete main)
Format settings, Endianness : Big
Codec ID : A_AC3
Duration : 21mn 38s
Bit rate mode : Constant
Bit rate : 256 Kbps
Channel(s) : 2 channels
Channel positions : Front: L R
Sampling rate : 48.0 KHz
Bit depth : 16 bits
Compression mode : Lossy
Delay relative to video : 29ms
Stream size : 39.6 MiB (3%)
Title : DD 2.0 VO-production
Language : Russian
Default : No
Forced : No
Audio #5
ID : 6
Format : DTS
Format/Info : Digital Theater Systems
Mode : 16
Format settings, Endianness : Big
Codec ID : A_DTS
Duration : 21mn 38s
Bit rate mode : Constant
Bit rate : 1 509 Kbps
Channel(s) : 6 channels
Channel positions : Front: L C R, Side: L R, LFE
Sampling rate : 48.0 KHz
Bit depth : 24 bits
Compression mode : Lossy
Stream size : 234 MiB (21%)
Title : DTS 5.1 Original
Language : English
Default : No
Forced : No
Text #1
ID : 7
Format : UTF-8
Codec ID : S_TEXT/UTF8
Codec ID/Info : UTF-8 Plain Text
Title : ISFF
Language : Russian
Default : No
Forced : No
Text #2
ID : 8
Format : UTF-8
Codec ID : S_TEXT/UTF8
Codec ID/Info : UTF-8 Plain Text
Title : Original BD
Language : English
Default : No
Forced : No
Menu
00:00:00.000 : en:00:00:00.000
00:08:25.088 : en:00:08:25.088
00:15:39.105 : en:00:15:39.105
00:21:06.515 : en:00:21:06.515

Скриншоты

Сезон 7А 720р 4xRus
Сезон 7А 1080р 4xRus
Сезон 7Б 720р 4xRus
Альтернативные раздачи
[www.cybertorrent.ru].t1874.torrent 
Торрент: Зарегистрирован [ 2018-02-16 08:44 ] · 0154F85914FA36133635E266D231B8A7A0F3566C

Скачать .torrent

Скачать

75 KB

Статус: проверено
Скачан: 0 раз
Размер: 14,66 GB
Профиль [ЛС]
Показать сообщения:    

Текущее время: 18-Авг 06:15

Часовой пояс: UTC ± 0



Вы не можете начинать темы
Вы не можете отвечать на сообщения
Вы не можете редактировать свои сообщения
Вы не можете удалять свои сообщения
Вы не можете голосовать в опросах
Вы не можете прикреплять файлы к сообщениям
Вы можете скачивать файлы
Torrents24.ru открытый BitTorrent Torrents24.pl открытый BitTorrent CyberTorrent.ru открытый BitTorrent BtList.ru рейтинг BitTorrent трекеров Яндекс.Метрика