BitTorrent клиенты



Покемон Герои: Латиос и Латиас (Фильм 5) / Pokemon Heroes: Latias and Latios [Movie] [Без хардсаба] [RUS(int), ENG, SUB] [2002, детский, комедия, приключения, фэнтези, BDRip] [1080p] [Американская версия]

Ответить на тему
 
Автор Сообщение

Букашка ®

Пол: Женский

Стаж: 1 год

Сообщений: 301

Создавать темы 06-Фев-2018 00:59

[Цитировать]

-Покемон: Фильм 5 - Герои: Латиоси Латиас
Pokemon: The Movie 5 - Heroes: Latios and Latias
[FHD 1080p]-Pokemon the Movie [FHD 1080p]:|1| |2| |3| |4| |5| |6| |7| |8| |9| |10| |11| |12| |13| |14b и 14w| |15| |16| |17| |18| |19| |20|- Страна: Япония / США
Год выпуска: 13 июля 2002 г.
Жанр: детский, комедия, приключения, фэнтези.
Тип: Movie
Продолжительность: 70 мин
Режиссер: Кунихико Юяма
Студия: OLM
-Описание:
Злые шпионки Джованни - Окли и Анна, вместо того, чтобы выполнить поручения, решили захватить мир. Но внезапно на их пути становится супергерой - Эш Кетчум из города Паллет. И кто же победит в этой жестокой схватке: добро или зло?(c)TeamGliger-Информация о релизе:
BDRip, сборка Американского видеоряда, сведение звука: LightEssence
Трехголосая озвучка:
TeamGliger (sim_emrom, Recart, Алла; перевод: Recart, Andron1818)
Двухголосая озвучка:
R.G. TheAngelOfDeath & SweetySacrifice (мужской и женский голос; перевод: Andron1818)
Одноголосая озвучка:
TeamGliger (Ричард2323(мужской голос); перевод: Andron1818)-Качество: BDRip | Тип релиза: Без хардсаба | Формат видео: MKV
Релиз/Автор рипа: LightEssence
Совместимость с бытовыми плеерами: Нет-Обновление от 13.10.2017
Видео: x264(8bit), 1920х1080, 6000 kbps, 23.976 fps(NTSC)
в составе контейнера:
Аудио 1: AC3, 192kbps, 48kHz, 2ch - Русский; Озвучка 1: [MVO] - Трехголосый, Закадровый) [TeamGliger]
Аудио 2: AC3, 192kbps, 48kHz, 2ch - Русский; Озвучка 2: [DVO] - Двухголосый, Закадровый) [R.G. TheAngelOfDeath & SweetySacrifice]
Аудио 3: AC3, 192kbps, 48kHz, 2ch - Русский; Озвучка 3: [VO] - Одноголосый, Закадровый) [TeamGliger]
Аудио 4: AC3, 448kbps, 48kHz, 6ch - Английский; Озвучка 4: [DUB] - Многоголосый, Дублированный [Оригинал]
Субтитры 1: SRT, Русский - TeamGliger [Andron1818]
Субтитры 2: SRT, Английский - Pokemon Company [SubRip by LightEssence]-

Скриншоты

Подробные тех. данные

Код:General
Unique ID : 186190129283047294890381469642438118726 (0x8C12EA1EDEFE7A15B5F8677B46868D46)
Complete name : F:\Покемон\Pokemon the Movie [1080p]\05. Pokemon the Movie 5 - Heroes - Latios and Latias [BDRip-1080p][LightEssence].mkv
Format : Matroska
Format version : Version 4 / Version 2
File size : 3.46 GiB
Duration : 1 h 10 min
Overall bit rate : 7 016 kb/s
Encoded date : UTC 2017-10-13 15:16:25
Writing application : mkvmerge v16.0.0 ('Protest') 64-bit
Writing library : libebml v1.3.5 + libmatroska v1.4.8
Video
ID : 1
Format : AVC
Format/Info : Advanced Video Codec
Format profile : High@L4
Format settings, CABAC : Yes
Format settings, RefFrames : 4 frames
Codec ID : V_MPEG4/ISO/AVC
Duration : 1 h 10 min
Bit rate : 6 000 kb/s
Width : 1 920 pixels
Height : 1 080 pixels
Display aspect ratio : 16:9
Frame rate mode : Constant
Frame rate : 23.976 FPS
Color space : YUV
Chroma subsampling : 4:2:0
Bit depth : 8 bits
Scan type : Progressive
Bits/(Pixel*Frame) : 0.121
Stream size : 2.95 GiB (85%)
Title : Pokemon the Movie 5 - Heroes: Latios and Latias - 2003 BDRip - [LightEssence][1080p]
Writing library : x264 core 146 r2538 121396c
Encoding settings : cabac=1 / ref=3 / deblock=1:0:0 / analyse=0x3:0 / me=dia / subme=1 / psy=1 / psy_rd=1.00:0.00 / mixed_ref=0 / me_range=16 / chroma_me=1 / trellis=1 / 8x8dct=1 / cqm=0 / deadzone=21,11 / fast_pskip=1 / chroma_qp_offset=0 / threads=12 / lookahead_threads=2 / sliced_threads=0 / nr=0 / decimate=1 / interlaced=0 / bluray_compat=0 / constrained_intra=0 / bframes=3 / b_pyramid=2 / b_adapt=1 / b_bias=0 / direct=1 / weightb=1 / open_gop=0 / weightp=2 / keyint=250 / keyint_min=23 / scenecut=40 / intra_refresh=0 / rc_lookahead=40 / rc=abr / mbtree=1 / bitrate=6000 / ratetol=1.0 / qcomp=0.60 / qpmin=0 / qpmax=69 / qpstep=4 / ip_ratio=1.40 / aq=1:1.00
Language : English
Default : Yes
Forced : No
Color range : Limited
Color primaries : BT.709
Transfer characteristics : BT.709
Matrix coefficients : BT.709
Audio #1
ID : 2
Format : AC-3
Format/Info : Audio Coding 3
Format settings, Endianness : Big
Codec ID : A_AC3
Duration : 1 h 10 min
Bit rate mode : Constant
Bit rate : 192 kb/s
Channel(s) : 2 channels
Channel positions : Front: L R
Sampling rate : 48.0 kHz
Frame rate : 31.250 FPS (1536 SPF)
Bit depth : 16 bits
Compression mode : Lossy
Stream size : 96.8 MiB (3%)
Title : RUS [MVO] - (трехголосый, закадровый) [TeamGliger - sim_emrom, Recart, Алла]
Language : Russian
Service kind : Complete Main
Default : Yes
Forced : No
Audio #2
ID : 3
Format : AC-3
Format/Info : Audio Coding 3
Format settings, Endianness : Big
Codec ID : A_AC3
Duration : 1 h 10 min
Bit rate mode : Constant
Bit rate : 192 kb/s
Channel(s) : 2 channels
Channel positions : Front: L R
Sampling rate : 48.0 kHz
Frame rate : 31.250 FPS (1536 SPF)
Bit depth : 16 bits
Compression mode : Lossy
Stream size : 96.8 MiB (3%)
Title : RUS [DVO] - (двухголосый, закадровый) [R.G. TheAngelOfDeath & SweetySacrifice]
Language : Russian
Service kind : Complete Main
Default : No
Forced : No
Audio #3
ID : 4
Format : AC-3
Format/Info : Audio Coding 3
Format settings, Endianness : Big
Codec ID : A_AC3
Duration : 1 h 10 min
Bit rate mode : Constant
Bit rate : 192 kb/s
Channel(s) : 2 channels
Channel positions : Front: L R
Sampling rate : 48.0 kHz
Frame rate : 31.250 FPS (1536 SPF)
Bit depth : 16 bits
Compression mode : Lossy
Stream size : 96.8 MiB (3%)
Title : RUS [VO] - (одноголосый, закадровый) [TeamGliger - Ричард2323]
Language : Russian
Service kind : Complete Main
Default : No
Forced : No
Audio #4
ID : 5
Format : AC-3
Format/Info : Audio Coding 3
Format settings, Endianness : Big
Codec ID : A_AC3
Duration : 1 h 10 min
Bit rate mode : Constant
Bit rate : 448 kb/s
Channel(s) : 6 channels
Channel positions : Front: L C R, Side: L R, LFE
Sampling rate : 48.0 kHz
Frame rate : 31.250 FPS (1536 SPF)
Bit depth : 16 bits
Compression mode : Lossy
Stream size : 226 MiB (6%)
Title : ENG [DUB]
Language : English
Service kind : Complete Main
Default : No
Forced : No
Text #1
ID : 6
Format : UTF-8
Codec ID : S_TEXT/UTF8
Codec ID/Info : UTF-8 Plain Text
Duration : 1 h 5 min
Bit rate : 52 b/s
Count of elements : 396
Stream size : 25.2 KiB (0%)
Title : RUS [SUB] - TeamGliger [перевод: Andron1818]
Language : Russian
Default : No
Forced : No
Text #2
ID : 7
Format : UTF-8
Codec ID : S_TEXT/UTF8
Codec ID/Info : UTF-8 Plain Text
Duration : 1 h 10 min
Bit rate : 53 b/s
Count of elements : 897
Stream size : 27.5 KiB (0%)
Title : ENG [SUB] - Pokemon Company [SubRip by LightEssence]
Language : English
Default : No
Forced : No

Отличия

DVDRip [Andron1818] - BDRip, 1080p
DVDRip [theAofD] - BDRip, 1080p
BDRip-720p [Recart] - 1080p
BDRip-1080p [sim_emrom] - Лучше качество [сравнение 1] [сравнение 2] [сравнение 3] [сравнение 4], наличие субтитров вместе с оригинальной дорожкой
-Внимание!!!
Если торрент не видит анонсеры рутрекера и не видит сидов (раздача выделена красным цветом в uTorrent) рекомендую воспользоваться этой или другими инструкциями по обходу блокировки
[Профиль] [ЛС]
Показать сообщения:    
Ответить на тему

Текущее время: 19-Фев 16:55

Часовой пояс: UTC + 3



Вы не можете начинать темы
Вы не можете отвечать на сообщения
Вы не можете редактировать свои сообщения
Вы не можете удалять свои сообщения
Вы не можете голосовать в опросах
Вы не можете прикреплять файлы к сообщениям
Вы можете скачивать файлы