Статистика раздачи
Размер:  13,36 GB   |    Зарегистрирован:  8 месяцев 6 дней   |    Скачан:  0 раз

Полного источника не было: Никогда

 
   
 
 

DR_KTO ®

Пол:
Не указан
Стаж:
8 месяцев 7 дней
Сообщений:
105

Мы идём играть! (Карусель, 76 вып.)
Дата/Год выпуска: 2009-2010
Страна: Россия
Жанр: Детская телепередача
Продолжительность: 76 х ~ 13 минут
Перевод: Не требуется
Русские субтитры: нет
Телеканал: Карусель
Описание: Трудно найти более озорную и весёлую девочку, чем главная героиня передачи. Стрекотуша и её верный друг Мишка-Тишка постоянно заняты поиском приключений и веселыми играми. Каждый раз для игры им требуется какой-то новый, интересный предмет, а чтобы найти его, нужно позвать на помощь доброго волшебника и мага Деда Секрета!
Стоит только ему во всех тонкостях описать необходимый им для игры предмет, как Дед Секрет тут же поможет им его отыскать. Маленькие зрители тоже могут присоединиться к поискам и вместе с нашими задорными героями разгадывать загадки, учиться быстро произносить веселые скороговорки, правильно описывать разные предметы, а также петь и плясать.
Благодаря этой программе, ваш малыш быстро выучит новые для него слова, пополнив свой словарный запас, будет правильно выговаривать слова, развивать логику и память, а также улучшать свою моторику благодаря новым танцевальным движениям. Детская программа “Мы идем играть” поможет вашему малышу провести время не только весело, но и с пользой для себя.
Доп. информация: Запись с канала "Карусель". Нумерация выпусков - с него же. В раздаче выпуски с номерами с 01 по 99 ( за исключением
выпусков: №№01-18, 57, 66, 88, 89, 90. При появлении этих выпусков (надеюсь) раздача будет дополняться.
Ссылка на предыдущие и альтернативные раздачи: http://cybertorrent.ru/tracker.php?nm=%D0%9C%D1%8B%20%D0%B8%D0%B4%D1%91%D0%BC...0%B0%D1%82%D1%8C
Семпл: http://multi-up.com/962801
Релиз:
качество: SATRip
формат: AVI
Видео: 704x560 (4:3), 25 fps, XviD build 64 ~1790 kbps avg, 0.18 bit/pixel
Аудио: 48 kHz, MPEG Layer 3, 2 ch, ~128.00 kbps avg

Список выпусков/серий

19. Бабочка.avi
20. Воздушный змей.avi
21. Ёжик.avi
22. Корона.avi
23. Олень.avi
24. Подзорная труба.avi
25. Ролики.avi
26. Черепаха.avi
27. Морковь.avi
28. Лев.avi
29. Паровоз.avi
30. Маска для ныряния.avi
31. Яблоко.avi
32. Книга.avi
33. Лейка.avi
34. Котёнок.avi
35. Мелки.avi
36. Самокат.avi
37. Пингвин.avi
38. Карнавальная маска.avi
39. Стрекоза.avi
40. Подсолнух.avi
41. Краски.avi
42. Ромашка.avi
43. Зебра.avi
44. Шарф.avi
45. Юла.avi
46. Корзина.avi
47. Клубника.avi
48. Медвежонок.avi
49. Рюкзак.avi
50. Пластилин.avi
51. Зонт.avi
52. Свисток.avi
53. Панамка.avi
54. Виноград.avi
55. Кукла.avi
56. Улитка.avi
58. Кубики.avi
59. Ёлка.avi
60. Самолёт.avi
61. Пожарная машина.avi
62. Автобус.avi
63. Зоопарк.avi
64. Домик.avi
65. Поезд.avi
67. Машина.avi
68. Грибы.avi
69. Белочка.avi
70. Кенгуру.avi
71. Снежная баба.avi
72. Будильник.avi
73. Божья коровка.avi
74. Резиновый мяч.avi
75. Фонарик.avi
76. Школьный рюкзак.avi
77. Обезьяна.avi
78. Расчёска.avi
79. Матрёшка.avi
80. Кроватка.avi
81. Свечки для торта.avi
82. Пианино.avi
83. Доска с мелками.avi
84. Груша.avi
85. Пенал.avi
86. Бананы.avi
87. Ворона.avi
91. Неваляшка.avi
92. Платье для куклы.avi
93. Рыбка.avi
94. Мышка.avi
95. Страус.avi
96. Утка.avi
97. Кактус.avi
98. Зеркало.avi
99. Зубная щётка.avi
22.11.2015г. добавлено 5 выпусков:
37. Пингвин.avi
47. Клубника.avi
58. Кубики.avi
59. Ёлка.avi
62. Автобус.avi

MediaInfo

Полное имя : E:\РАЗДАЧИ\Мы идём играть 01-99 МОЙ\Мы идём играть 01-99\19. Бабочка.avi
Формат : AVI
Формат/Информация : Audio Video Interleave
Размер файла : 183 Мбайт
Продолжительность : 13 м.
Общий поток : 1928 Кбит/сек
Программа кодирования : Lavf54.63.100
Видео
Идентификатор : 0
Формат : MPEG-4 Visual
Профиль формата : Simple@L3
Параметр BVOP формата : Нет
Параметр QPel формата : Нет
Параметр GMC формата : Без точки перехода
Параметр матрицы формата : Default (H.263)
Идентификатор кодека : XVID
Идентификатор кодека/Подсказка : XviD
Продолжительность : 13 м.
Битрейт : 1787 Кбит/сек
Ширина : 704 пикселя
Высота : 560 пикселей
Соотношение сторон : 4:3
Частота кадров : 25,000 кадров/сек
Цветовое пространство : YUV
Субдискретизация насыщенности : 4:2:0
Битовая глубина : 8 бит
Тип развёртки : Прогрессивная
Метод сжатия : С потерями
Бит/(Пиксели*Кадры) : 0.181
Размер потока : 170 Мбайт (93%)
Библиотека кодирования : XviD 64
Аудио
Идентификатор : 1
Формат : MPEG Audio
Версия формата : Version 1
Профиль формата : Layer 3
Идентификатор кодека : 55
Идентификатор кодека/Подсказка : MP3
Продолжительность : 13 м.
Вид битрейта : Постоянный
Битрейт : 128 Кбит/сек
Каналы : 2 канала
Частота : 48,0 КГц
Метод сжатия : С потерями
Размер потока : 12,2 Мбайт (7%)
Выравнивание : Соединение по промежуткам
Продолжительность промежутка : 24 мс. (0,60 видеокадр)
Время предзагрузки промежутка : 24 мс.

Скриншоты

[www.cybertorrent.ru].t1840.torrent 
Торрент: Зарегистрирован [ 2018-02-16 08:44 ] · B9BDABBF046A83AB48E5DE680CF2C1A83C2BE0C0

Скачать .torrent

Скачать

71 KB

Статус: проверено
Скачан: 0 раз
Размер: 13,36 GB
Профиль [ЛС]
Показать сообщения:    

Текущее время: 22-Окт 23:12

Часовой пояс: UTC ± 0



Вы не можете начинать темы
Вы не можете отвечать на сообщения
Вы не можете редактировать свои сообщения
Вы не можете удалять свои сообщения
Вы не можете голосовать в опросах
Вы не можете прикреплять файлы к сообщениям
Вы можете скачивать файлы
Torrents24.ru открытый BitTorrent Torrents24.pl открытый BitTorrent CyberTorrent.ru открытый BitTorrent BtList.ru рейтинг BitTorrent трекеров Яндекс.Метрика