BitTorrent клиенты



РУБИ / RWBY / Том: 4, 5 / Серии: 1-26 из 26 (Монти Оум / Monty Oum) [2016-2018, США, технофэнтези, боевик, комедия, школа, WEBRip 1080p] MVO (SHIZA Project) + Original + Sub (Rus)

Ответить на тему
 
Автор Сообщение

Volga ®

Пол: Не указан

Стаж: 1 год

Сообщений: 761

Создавать темы 06-Фев-2018 00:59

[Цитировать]

Страна: США
Производство: Rooster Teeth Productions
Жанр: Технофэнтези, Боевик, Комедия, Школа
Продолжительность: 13-27 мин
Год выпуска: 2016-2018
Перевод: Любительский многоголосый закадровый (SHIZA Project); Субтитры
Русские субтитры: перевод Team WARDEN
Режиссёр: Монти Оум / Monty Oum
Роли озвучивали: Lindsay Jones (Ruby Rose), Kara Eberle (Weiss Schnee), Arryn Zech (Blake Belladonna), Barbara Dunkelman (Yang Xiao Long), Miles Luna (Jaune Arc), Samantha Ireland (Nora Valkyrie), Neath Oum (Lie Ren), и другие
Описание: Прошло несколько месяцев после падения Бикона, и мир Ремнант еще не оправился. Напряженность высока, множество жизней было потеряно, и члены команды RWBY разделились. Каждой из наших героинь предстоит отправиться в свое путешествие. В то время как некоторые занимаются поиском себя, надеясь двигаться дальше, остальные странствуют по миру в поисках ответов. Вместе с остальными членами команды JNPR, Руби Роуз начала свой длинный путь к королевству Мистрал, но дорога впереди полна сюрпризов.
Предыдущие и альтернативные раздачи
Качество: WEBRip 1080p
Формат: MKV
Видео: x264 1920x1080 24fps, ~4800 kbps

Том 4 (2016-2017)

Аудио 1: Английский (AAC-LC 44.1 kHz stereo, 126 kbps)
Аудио 2: Русский, любительский многоголосый закадровый (SHIZA Project) (AAC-LC 48 kHz stereo, 192 kbps)
Субтитры 1: ASS, Русские - перевод Team WARDEN; перевод песен - TT
Субтитры 2: ASS, Русские - перевод TheDoctor Team
Субтитры 3: SRT, Английские
03.10.16 RWBY: Volume 4 Character Short (Трейлер 4 тома) (00:05:11) (MasterRip, H264 1920x1080@24fps, 6000kbps; AAC-LC 48kHz stereo, 317kbps)
17.10.16 World of Remnant: Vale (Мир Ремнанта: Вэйл) (00:02:24)
18.10.16 World of Remnant: Mistral (Мир Ремнанта: Мистрал) (00:02:20)
19.10.16 World of Remnant: Atlas (Мир Ремнанта: Атлас) (00:03:12)
20.10.16 World of Remnant: Vacuo (Мир Ремнанта: Вакуо) (00:02:58)

22.10.16 01: The Next Step (Следующий шаг) (00:19:51)
29.10.16 02: Remembrance (Воспоминания) (00:14:20)
05.11.16 03: Of Runaways and Stowaways (О беглецах и "зайцах") (00:18:17)

11.11.16 World of Remnant: Between Kingdoms (Мир Ремнанта: Между Королевствами) (00:03:26)
19.11.16 04: Family (Семья) (00:16:29) (+ английское аудио с YouTube - оргинальная дорожка была двойным моно)
26.11.16 World of Remnant: Faunus (Мир Ремнанта: Фавны) (00:04:40)
03.12.16 05: Menagerie (Менаджери) (00:12:38)
10.12.16 06: Tipping Point (Переломный момент) (00:16:24)

17.12.16 World of Remnant: Schnee Dust Company (Мир Ремнанта: Праховая Компания Шни) (00:04:28)
24.12.16 07: Punished (Наказаны) (00:16:46)
31.12.16 08: A Much Needed Talk (Необходимый разговор) (00:20:40)
07.01.17 09: Two Steps Forward, Two Steps Back (Два шага вперёд, два – назад) (00:15:26)

14.01.17 World of Remnant: The Great War (Мир Ремнанта: Великая война) (00:07:20)
21.01.17 10: Kuroyuri (Куроюри) (00:18:54)
28.01.17 11: Taking Control (Взять под контроль) (00:15:37)
04.02.17 12: No Safe Haven (Небезопасное убежище) (00:27:03)

Том 5 (2017-2018)

Аудио 1: Английский (AAC-LC 44.1 kHz stereo, 126 kbps)
Аудио 2: (1-13 серии) Русский, любительский многоголосый закадровый (SHIZA Project) (AAC-LC 48 kHz stereo, 192 kbps)
Субтитры: ASS, Русские - перевод Team WARDEN; перевод песен - Леон Каримов, в составе контейнера
17.07.17 Weiss Character Short (Трейлер Вайсс) (00:04:03)
04.09.17 Blake Character Short (Трейлер Блейк) (00:04:59)
09.10.17 Volume 5 Trailer (Трейлер 5 тома) (00:01:31)
14.10.17 Yang Character Short (Трейлер Янг) (00:04:15)

14.10.17 01: Welcome to Haven (Добро пожаловать в Хейвен) (00:23:03)
21.10.17 02: Dread in the Air (Страх в воздухе) (00:21:04)
28.10.17 03: Unforeseen Complications (Непредвиденные трудности) (00:18:35)
04.11.17 04: Lighting the Fire (Разжигая огонь) (00:16:15)
11.11.17 05: Necessary Sacrifice (Необходимая жертва) (00:16:58)
18.11.17 06: Known by its Song (Видно по полёту) (00:17:36)
25.11.17 07: Rest and Resolutions (Отдых и ответы) (00:12:48)
02.12.17 08: Alone Together (Одиночество вместе) (00:15:18)
09.12.17 09: A Perfect Storm (Идеальный шторм) (00:15:07)
16.12.17 10: True Colors (Истинные цвета) (00:19:26)
30.12.17 11: The More the Merrier (Вместе веселее) (00:16:05)
06.01.18 12: Vault of the Spring Maiden (Хранилище Девы Весны) (00:14:43)
13.01.18 13: Downfall (Провал) (00:15:28)
20.01.18 14: Haven's Fate (Судьба Хейвена) (00:24:28)

График выхода серий и обновления, доп. информация

Новые серии выходят каждую субботу в 19:00 MSK (UTC+3) для платных подписчиков сайта RoosterTeeth.
В 19:00 MSK во вторник серия становится доступна к просмотру для всех авторизованных пользователей сайта RoosterTeeth (регистрация бесплатная)
При выходе следующей серии (в субботу в 19:00) предыдущая серия становится доступна к просмотру всем и публикуется на YouTube.
Обновление раздачи с новой серией и русскими субтитрами к ней ориентировочно в среду-четверг
В раздаче используется максимально возможный оригинальный поток с сайта RT. Качество на YouTube не отличается в лучшую сторону.

Подробные технические данные

General
Unique ID : 187987538838874552033248080672708314360 (0x8D6D1540F0745535B846350EEB4F44F8)
Complete name : G:\RWBY\RWBY [WEBRip]\Volume 5\RWBY V05E01 - Welcome to Haven.mkv
Format : Matroska
Format version : Version 4 / Version 2
File size : 878 MiB
Duration : 23 min 3 s
Overall bit rate : 5 322 kb/s
Movie name : RWBY Volume 5, Episode 1 - Welcome to Haven
Encoded date : UTC 2017-11-07 19:19:55
Writing application : mkvmerge v17.0.0 ('Be Ur Friend') 64-bit
Writing library : libebml v1.3.5 + libmatroska v1.4.8
Cover : Yes
Attachments : FuturaBookC.ttf / cover.jpg
Video
ID : 1
Format : AVC
Format/Info : Advanced Video Codec
Format profile : Main@L3.1
Format settings, CABAC : Yes
Format settings, RefFrames : 4 frames
Codec ID : V_MPEG4/ISO/AVC
Duration : 23 min 3 s
Bit rate : 4 800 kb/s
Width : 1 920 pixels
Height : 1 080 pixels
Display aspect ratio : 16:9
Frame rate mode : Constant
Frame rate : 24.000 FPS
Color space : YUV
Chroma subsampling : 4:2:0
Bit depth : 8 bits
Scan type : Progressive
Bits/(Pixel*Frame) : 0.096
Stream size : 825 MiB (94%)
Writing library : x264 core 148
Encoding settings : cabac=1 / ref=3 / deblock=1:0:0 / analyse=0x1:0x111 / me=hex / subme=7 / psy=1 / psy_rd=1.00:0.00 / mixed_ref=1 / me_range=16 / chroma_me=1 / trellis=1 / 8x8dct=0 / cqm=0 / deadzone=21,11 / fast_pskip=1 / chroma_qp_offset=-2 / threads=34 / lookahead_threads=5 / sliced_threads=0 / nr=0 / decimate=1 / interlaced=0 / bluray_compat=0 / constrained_intra=0 / bframes=3 / b_pyramid=2 / b_adapt=1 / b_bias=0 / direct=1 / weightb=1 / open_gop=0 / weightp=2 / keyint=90 / keyint_min=9 / scenecut=0 / intra_refresh=0 / rc_lookahead=40 / rc=abr / mbtree=1 / bitrate=4800 / ratetol=1.0 / qcomp=0.60 / qpmin=0 / qpmax=69 / qpstep=4 / ip_ratio=1.40 / aq=1:1.00
Default : Yes
Forced : No
Color range : Limited
Color primaries : BT.709
Transfer characteristics : BT.709
Matrix coefficients : BT.709
Audio #1
ID : 2
Format : AAC
Format/Info : Advanced Audio Codec
Format profile : LC
Codec ID : A_AAC
Duration : 23 min 3 s
Bit rate : 126 kb/s
Channel(s) : 2 channels
Channel positions : Front: L R
Sampling rate : 44.1 kHz
Frame rate : 43.066 FPS (1024 SPF)
Compression mode : Lossy
Delay relative to video : -46 ms
Stream size : 20.7 MiB (2%)
Language : English
Default : Yes
Forced : No
Audio #2
ID : 3
Format : AAC
Format/Info : Advanced Audio Codec
Format profile : LC
Codec ID : A_AAC
Duration : 23 min 3 s
Bit rate : 192 kb/s
Channel(s) : 2 channels
Channel positions : Front: L R
Sampling rate : 48.0 kHz
Frame rate : 46.875 FPS (1024 SPF)
Compression mode : Lossy
Delay relative to video : -46 ms
Stream size : 31.7 MiB (4%)
Title : Russian MVO (SHIZA Project)
Language : Russian
Default : No
Forced : No
Text
ID : 4
Format : ASS
Codec ID : S_TEXT/ASS
Codec ID/Info : Advanced Sub Station Alpha
Duration : 22 min 13 s
Bit rate : 160 b/s
Count of elements : 342
Compression mode : Lossless
Stream size : 26.1 KiB (0%)
Title : Russian (Team WARDEN)
Language : Russian
Default : Yes
Forced : No

Скриншоты

Внимание! Раздача ведётся путём добавления новых серий

Внимание! Раздача ведётся путём добавления новых серий; при каждом добавлении создаётся новый торрент. Чтобы начать докачку новой серии, пользователям необходимо сделать следующее:
(1) остановить скачивание,
(2) удалить старый торрент у себя из клиента (старые серии удалять не надо),
(3) скачать новый торрент и запустить его у себя в клиенте вместо старого, при этом указать клиенту путь в старую папку куда и должно происходить скачивание новых серий.
Ваш клиент при этом должен произвести хеширование (проверку) старой папки (если не производит сам - помогите ему сделать это), и будет докачивать только те серии которых у вас ещё нет. Старые серии при этом не удаляются, а продолжают раздаваться!
Eсли вы уже удалили старые серии, то предотвратить повторную закачку старых серий можно, отжав галочку в соответствующих местах при запуске нового торрента. По возможности, желательно не удалять старые серии как можно дольше чтобы релизёр не столько продолжал раздавать старые серии, а смог сконцентрироваться на новых.
[Профиль] [ЛС]
Показать сообщения:    
Ответить на тему

Текущее время: 20-Фев 07:11

Часовой пояс: UTC + 3



Вы не можете начинать темы
Вы не можете отвечать на сообщения
Вы не можете редактировать свои сообщения
Вы не можете удалять свои сообщения
Вы не можете голосовать в опросах
Вы не можете прикреплять файлы к сообщениям
Вы можете скачивать файлы