Статистика раздачи
Размер:  7,55 GB   |    Зарегистрирован:  6 месяцев 5 дней   |    Скачан:  0 раз

Полного источника не было: Никогда

 
   
 
 

AleXa ®

Пол:
Не указан
Стаж:
6 месяцев 6 дней
Сообщений:
51

Футурама / Futurama
Сезон 7Б / Volume 8
720р
Страна: США
Жанр: Фантастика, комедия
Продолжительность: 0:21:38
Год выпуска: 2013
Перевод:
Двухголосый закадровый: 2x2, Кубик в Кубе
Многоголосый закадровый: LostFilm, VO-production
Русские субтитры: НФСФ
Автор идеи: Мэтт Грёйнинг / Matt Groening
Режиссёр: Фрэнк Марино, Дуэйн Кэри-Хилл, Стивен Сандовал, Кристалл Чесни-Томпсон...
Роли озвучивали: Билли Уэст, Кейти Сэгал, Джон ДиМаджио, Фил ЛаМарр, Лоурэн Том и др.
Описание: Сериал начинается с того, что разносчик пиццы из Нью-Йорка Филипп Джей Фрай случайно, как это кажется на первый взгляд, был заморожен в криогенной камере ровно в 00 часов 00 минут 00 секунд 1 января 2000 года. Он был разморожен тысячу лет спустя, 31 декабря 2999 года, и обнаружил себя в городе будущего Нью-Нью-Йорке. Пытаясь избежать принудительного назначения на работу курьером, кем он и был в прошлой жизни, Фрай познакомился со своими будущими коллегами - Турангой Лилой, роботом Бендером и пра-пра-пра-…-пра-внучатым племянником Хьюбертом Фарнсвортом — маразматичным 160-летним гениальным ученым-склеротиком, который берёт их на работу в свою небольшую компанию «Межпланетный экспресс», занимающуюся межгалактическими грузоперевозками. «Межпланетный экспресс» — это маленький бизнес профессора, окупающий его гениальные, но иногда весьма сомнительные исследования и изобретения.
Доп. информация: Видеоряд из 720p.BluRay.x264-DEMAND.
Синхронизация и удаление рекламы дорожки VO-production выполнены без пережатия.
Спасибо!
Антифеминист - Синхронизация и нормализация дорожек Кубик в Кубе, LostFilm
#Antisnl# - захват вещания 2х2
Студиям Кубик в Кубе, LostFilm, VO-production, телеканалу 2х2

Список серий:

7ACV14 Forty Percent Leadbelly
7ACV15 2-D Blacktop
7ACV16 T.: The Terrestrial
7ACV17 Fry and Leela’s Big Fling
7ACV18 The Inhuman Torch
7ACV19 Saturday Morning Fun Pit
7ACV20 Calculon 2.0
7ACV21 Assie Come Home
7ACV22 Leela and the Genestalk
7ACV23 Game of Tones.
7ACV24 Murder on the Planet Express
7ACV25 Stench and Stenchibility
7ACV26 Meanwhile
Семпл: Futurama7ACV14-26.720p.BDrip.4xRus
Качество: BDRip 720p
Формат: MKV
Видео: MPEG4/AVC (x264), 1280x720, 23,976fps, 2590kbps
Аудио 1: Русский, AC3, 48kHz, 2.0ch, 192kbps 2x2
Аудио 2: Русский, AC3, 48kHz, 2.0ch, 224kbps Кубик в Кубе
Аудио 3: Русский, AC3, 48kHz, 2.0ch, 192kbps LostFilm
Аудио 4: Русский, AC3, 48kHz, 2.0ch, 256kbps VO-production
Аудио 5: Английский, AC3, 48kHz, 5.1ch, 384kbps Оригинал
Субтитры: Русские НФСФ, английские

Подробные технические данные

Общее
General
Unique ID : 253992898301899733808834222777658112213 (0xBF1540BAC94C48D8AFD2EF26B499F8D5)
Complete name : F:\Futurama Volume 8.BDRip720p.4xRus.Eng\7ACV14-Forty Percent Leadbelly.720p.4xRus.Eng.mkv
Format : Matroska
Format version : Version 2
File size : 595 MiB
Duration : 21mn 38s
Overall bit rate : 3 843 Kbps
Encoded date : UTC 2014-05-17 09:07:26
Writing application : mkvmerge v5.4.0 ('Piper') built on Mar 10 2012 13:34:39
Writing library : libebml v1.2.3 + libmatroska v1.3.0
Video
ID : 1
Format : AVC
Format/Info : Advanced Video Codec
Format profile : High@L4.1
Format settings, CABAC : Yes
Format settings, ReFrames : 5 frames
Codec ID : V_MPEG4/ISO/AVC
Duration : 21mn 38s
Bit rate : 2 590 Kbps
Width : 1 280 pixels
Height : 720 pixels
Display aspect ratio : 16:9
Frame rate mode : Constant
Frame rate : 23.976 fps
Color space : YUV
Chroma subsampling : 4:2:0
Bit depth : 8 bits
Scan type : Progressive
Bits/(Pixel*Frame) : 0.117
Stream size : 390 MiB (66%)
Title : Futurama 7ACV14.BDRip.720p
Writing library : x264 core 140 r2377 1ca7bb9
Encoding settings : cabac=1 / ref=5 / deblock=1:0:0 / analyse=0x3:0x133 / me=umh / subme=7 / psy=1 / psy_rd=1.00:0.00 / mixed_ref=1 / me_range=16 / chroma_me=1 / trellis=1 / 8x8dct=1 / cqm=0 / deadzone=21,11 / fast_pskip=0 / chroma_qp_offset=-2 / threads=18 / lookahead_threads=3 / sliced_threads=0 / nr=0 / decimate=1 / interlaced=0 / bluray_compat=0 / constrained_intra=0 / bframes=3 / b_pyramid=2 / b_adapt=1 / b_bias=0 / direct=1 / weightb=1 / open_gop=0 / weightp=2 / keyint=250 / keyint_min=23 / scenecut=40 / intra_refresh=0 / rc_lookahead=40 / rc=2pass / mbtree=1 / bitrate=2590 / ratetol=1.0 / qcomp=0.60 / qpmin=0 / qpmax=69 / qpstep=4 / cplxblur=20.0 / qblur=0.5 / ip_ratio=1.40 / aq=1:1.00
Language : English
Default : Yes
Forced : No
Audio #1
ID : 2
Format : AC-3
Format/Info : Audio Coding 3
Mode extension : CM (complete main)
Format settings, Endianness : Big
Codec ID : A_AC3
Duration : 21mn 38s
Bit rate mode : Constant
Bit rate : 192 Kbps
Channel(s) : 2 channels
Channel positions : Front: L R
Sampling rate : 48.0 KHz
Bit depth : 16 bits
Compression mode : Lossy
Stream size : 29.7 MiB (5%)
Title : DD 2.0 2x2
Language : Russian
Default : Yes
Forced : No
Audio #2
ID : 3
Format : AC-3
Format/Info : Audio Coding 3
Mode extension : CM (complete main)
Format settings, Endianness : Big
Codec ID : A_AC3
Duration : 21mn 38s
Bit rate mode : Constant
Bit rate : 224 Kbps
Channel(s) : 2 channels
Channel positions : Front: L R
Sampling rate : 48.0 KHz
Bit depth : 16 bits
Compression mode : Lossy
Stream size : 34.7 MiB (6%)
Title : DD 2.0 Kubik v Kube
Language : Russian
Default : No
Forced : No
Audio #3
ID : 4
Format : AC-3
Format/Info : Audio Coding 3
Mode extension : CM (complete main)
Format settings, Endianness : Big
Codec ID : A_AC3
Duration : 21mn 38s
Bit rate mode : Constant
Bit rate : 192 Kbps
Channel(s) : 2 channels
Channel positions : Front: L R
Sampling rate : 48.0 KHz
Bit depth : 16 bits
Compression mode : Lossy
Stream size : 29.7 MiB (5%)
Title : DD 2.0 LostFilm
Language : Russian
Default : No
Forced : No
Audio #4
ID : 5
Format : AC-3
Format/Info : Audio Coding 3
Mode extension : CM (complete main)
Format settings, Endianness : Big
Codec ID : A_AC3
Duration : 21mn 38s
Bit rate mode : Constant
Bit rate : 256 Kbps
Channel(s) : 2 channels
Channel positions : Front: L R
Sampling rate : 48.0 KHz
Bit depth : 16 bits
Compression mode : Lossy
Delay relative to video : 21ms
Stream size : 39.6 MiB (7%)
Title : DD 2.0 VO-production
Language : Russian
Default : No
Forced : No
Audio #5
ID : 6
Format : AC-3
Format/Info : Audio Coding 3
Mode extension : CM (complete main)
Format settings, Endianness : Big
Codec ID : A_AC3
Duration : 21mn 38s
Bit rate mode : Constant
Bit rate : 384 Kbps
Channel(s) : 6 channels
Channel positions : Front: L C R, Side: L R, LFE
Sampling rate : 48.0 KHz
Bit depth : 16 bits
Compression mode : Lossy
Delay relative to video : 31ms
Stream size : 59.4 MiB (10%)
Title : DD 5.1 Original
Language : English
Default : No
Forced : No
Text #1
ID : 7
Format : UTF-8
Codec ID : S_TEXT/UTF8
Codec ID/Info : UTF-8 Plain Text
Title : ISFF
Language : Russian
Default : No
Forced : No
Text #2
ID : 8
Format : UTF-8
Codec ID : S_TEXT/UTF8
Codec ID/Info : UTF-8 Plain Text
Title : Original BD
Language : English
Default : No
Forced : No

Скриншоты


Сезон 7А 720р 4xRus
Сезон 7А 1080р 4xRus
Сезон 7Б 1080р 4xRus
Альтернативные раздачи
[www.cybertorrent.ru].t1827.torrent 
Торрент: Зарегистрирован [ 2018-02-16 08:44 ] · A2C03597AD3572C3353744CF5482E20CAD3DD217

Скачать .torrent

Скачать

39 KB

Статус: проверено
Скачан: 0 раз
Размер: 7,55 GB
Профиль [ЛС]
Показать сообщения:    

Текущее время: 21-Авг 13:27

Часовой пояс: UTC ± 0



Вы не можете начинать темы
Вы не можете отвечать на сообщения
Вы не можете редактировать свои сообщения
Вы не можете удалять свои сообщения
Вы не можете голосовать в опросах
Вы не можете прикреплять файлы к сообщениям
Вы можете скачивать файлы
Torrents24.ru открытый BitTorrent Torrents24.pl открытый BitTorrent CyberTorrent.ru открытый BitTorrent BtList.ru рейтинг BitTorrent трекеров Яндекс.Метрика