BitTorrent клиенты



Покемон Навсегда. Селеби: Голос Леса (Фильм 4) / Pokemon 4Ever: Celebi - Voice of the Forest [Movie] [Без хардсаба] [RUS(int)] [2001, детский, комедия, приключения, фэнтези, WEBRip] [HWP] [Американская версия]

Ответить на тему
 
Автор Сообщение

Букашка ®

Пол: Женский

Стаж: 1 год

Сообщений: 301

Создавать темы 05-Фев-2018 18:30

[Цитировать]

-Покемон Навсегда (фильм 4) - Селеби: Голос Леса
Pokemon 4ever - Celebi: Voice of the Forest
[FHD 1080p] [HD 720p] [SD 396p]- Страна: Япония / США
Год выпуска: 7 июля 2001 г.
Жанр: детский, комедия, приключения, фэнтези.
Тип: Movie
Продолжительность: 78 мин
Режиссер: Кунихико Юяма
Студия: OLM
-Описание: Мальчик Сэм помогает хранителю леса - покемону Селеби спастись от человека, который охотится на покемонов. Благодаря способностям Селеби, им удается перенестись на 40 лет в будущее, в тот период, когда путешествовал Эш. Сэм объединяется силами вместе с Эшем и они отправляются помогать Селеби исцеляться.
Так начинались удивительные приключения Эша, Сэма, Селеби и Пикачу. Их возвращения в реальное время ждут враги. Мародер в железной маске из команды R хочет захватить Селеби. Он превращает его в черного покемона, забирает всю его силу и применяет её для того, чтобы стать обладателем всего мира.(с)multyasha-Информация о релизе:
WEBRip, сведение звука: LightEssence
Трехголосая озвучка:
West Video (Лицензионный диск: Mclovin345)-Качество: WEBRip | Тип релиза: Без хардсаба | Формат видео: AVI
Релиз/Автор рипа: LightEssence
Совместимость с бытовыми плеерами: Да-Обновление от 13.10.2017
Видео: XviD(8bit), 704x396, 2000 kbps, 23.976 fps(NTSC)
в составе контейнера:
Аудио 1: MP3, 192kbps, 48kHz, 2ch - Русский; Озвучка 1: [MVO] - Трехголосый, Закадровый [West Video]-

Скриншоты

Подробные тех. данные

Код:General
Complete name : F:\Покемон\Pokemon the Movie [HWP]\04. Pokemon 4ever - Celebi - Voice of the Forest [WEBRip-HWP][LightEssence].avi
Format : AVI
Format/Info : Audio Video Interleave
Format profile : OpenDML
File size : 1.22 GiB
Duration : 1 h 18 min
Overall bit rate : 2 207 kb/s
Writing application : Lavf57.71.100
Video
ID : 0
Format : MPEG-4 Visual
Format profile : Advanced Simple@L5
Format settings, BVOP : 3
Format settings, QPel : No
Format settings, GMC : No warppoints
Format settings, Matrix : Default (H.263)
Codec ID : XVID
Codec ID/Hint : XviD
Duration : 1 h 18 min
Bit rate : 2 000 kb/s
Width : 704 pixels
Height : 396 pixels
Display aspect ratio : 16:9
Frame rate : 23.976 (24000/1001) FPS
Color space : YUV
Chroma subsampling : 4:2:0
Bit depth : 8 bits
Scan type : Progressive
Compression mode : Lossy
Bits/(Pixel*Frame) : 0.299
Stream size : 1.10 GiB (91%)
Writing library : XviD 67
Audio
ID : 1
Format : MPEG Audio
Format version : Version 1
Format profile : Layer 3
Mode : Joint stereo
Mode extension : MS Stereo
Codec ID : 55
Codec ID/Hint : MP3
Duration : 1 h 18 min
Bit rate mode : Constant
Bit rate : 192 kb/s
Channel(s) : 2 channels
Sampling rate : 48.0 kHz
Compression mode : Lossy
Stream size : 108 MiB (9%)
Alignment : Aligned on interleaves
Interleave, duration : 24 ms (0.58 video frame)

Отличия

DVD [Mclovin345] - WEBRip
DVDRip [cnauk] - WEBRip, сравнение
DVDRip [NIIBACO] - WEBRip, сравнение
DVDRip [Andron1818] - WEBRip, сравнение
WEBRip 1080p [LightEssence] - HWP
WEBRip 720p [LightEssence] - HWP

Постер в оригинальном размере

Скачать
-Внимание!!!
Если торрент не видит анонсеры рутрекера и не видит сидов (раздача выделена красным цветом в uTorrent) рекомендую воспользоваться этой или другими инструкциями по обходу блокировки
[Профиль] [ЛС]
Показать сообщения:    
Ответить на тему

Текущее время: 22-Фев 23:59

Часовой пояс: UTC + 3



Вы не можете начинать темы
Вы не можете отвечать на сообщения
Вы не можете редактировать свои сообщения
Вы не можете удалять свои сообщения
Вы не можете голосовать в опросах
Вы не можете прикреплять файлы к сообщениям
Вы можете скачивать файлы