Статистика раздачи
Размер:  10,72 GB   |    Зарегистрирован:  4 месяца 4 дня   |    Скачан:  0 раз

Полного источника не было: Никогда

 
   
 
 

martin ®

Пол:
Не указан
Стаж:
4 месяца 5 дней
Сообщений:
41

Легенда о Корре / The Legend of Korra- Страна: США
Жанр: Приключения, боевик, фэнтези
Продолжительность: 00:22:38
Года выпусков: 2012-2013
Перевод: Профессиональный (дублированный)
Русские субтитры: нет-Режиссёры: Майкл Данте ДиМартино, Брайан Кониецко / Michael Dante DiMartino, Bryan Konietzko
Роли дублировали: Владимир Антоник, Ольга Шорохова, Мария Овчинникова, Никита Прозоровский, Александр Гаврилин, Валерий Сторожик, Людмила Шувалова, Ольга Сирина.-Описание: Действие сериала «Аватар: Легенда о Корре» разворачивается через 70 лет после окончания Столетней Войны. Новое государство Объединенная республика и его процветающая столица Республиканский город были основаны как место, где маги и не-маги могут жить в мире и согласии. Но даже в этом райском месте не обходится без проблем – и новый Аватар, энергичная девушка по имени Корра, скоро в этом убедится.-Ссылка на предыдущие и альтернативные раздачи: http://cybertorrent.ru/tracker.php?nm=The%20Legend%20of%20Korra
Семпл: http://multi-up.com/956159-Качество: DVB
Формат: MPG
Видео: MPEG2, 720x576, 25.000 fps, 2.280 Kbps
Аудио: MP2, 48.0 KHz, 2 ch, 192 Kbps
Субтитры: Отсутствуют

Список серий

Сезон 1:
01. Добро пожаловать в республиканский город
02. Лист на ветру
03. Откровение
04. Голос в ночи
05. Дух соревнования
06. Победителем становится....
07. Последствия
08. Когда встречаются крайности
09. Послание из прошлого
10. Перелом
11. Скелеты в шкафу
12. Конец игры
Сезон 2:
01. Мятежный дух
02. Южное сияние
03. Гражданские войны, Часть 1
04. Гражданские войны, Часть 2
05. Миротворцы
06. Приманка
07. Начало начал, Часть 1
08. Начало начал, Часть 2
09. Проводник
10. Новая эра духов
11. Ночь тысячи звёзд
12. Гармоничное сближение
13. Тьма опускается
14. Свет во тьме

Внимание! Раздача ведётся путём добавления новых серий

Внимание! Раздача ведётся путём добавления новых серий; при каждом добавлении создаётся новый торрент. Чтобы начать докачку новой серии, пользователям необходимо сделать следующее:
(1) остановить скачивание,
(2) удалить старый торрент у себя из клиента (старые серии удалять не надо),
(3) скачать новый торрент и запустить его у себя в клиенте вместо старого, при этом указать клиенту путь в старую папку куда и должно происходить скачивание новых серий.
Ваш клиент при этом должен произвести хеширование (проверку) старой папки (если не производит сам - помогите ему сделать это), и будет докачивать только те серии которых у вас ещё нет. Старые серии при этом не удаляются, а продолжают раздаваться!
Eсли вы уже удалили старые серии, то предотвратить повторную закачку старых серий можно, отжав галочку в соответствующих местах при запуске нового торрента. По возможности, желательно не удалять старые серии как можно дольше чтобы релизёр не столько продолжал раздавать старые серии, а смог сконцентрироваться на новых.

Подробные технические данные

General
Complete name : D:\IPTV\Легенда о Корре\The Legend of Korra.s01.e01.mpg
Format : MPEG-PS
File size : 409 MiB
Duration : 22mn 39s
Overall bit rate mode : Variable
Overall bit rate : 2 522 Kbps
Video
ID : 224 (0xE0)
Format : MPEG Video
Format version : Version 2
Format profile : Main@Main
Format settings, BVOP : Yes
Format settings, Matrix : Custom
Format settings, GOP : M=3, N=12
Duration : 22mn 39s
Bit rate mode : Variable
Bit rate : 2 280 Kbps
Maximum bit rate : 10 000 Kbps
Width : 720 pixels
Height : 576 pixels
Display aspect ratio : 16:9
Frame rate : 25.000 fps
Standard : PAL
Color space : YUV
Chroma subsampling : 4:2:0
Bit depth : 8 bits
Scan type : Interlaced
Scan order : Top Field First
Compression mode : Lossy
Bits/(Pixel*Frame) : 0.220
Time code of first frame : 00:00:00:00
Time code source : Group of pictures header
Stream size : 369 MiB (90%)
Audio
ID : 192 (0xC0)
Format : MPEG Audio
Format version : Version 1
Format profile : Layer 2
Duration : 22mn 39s
Bit rate mode : Constant
Bit rate : 192 Kbps
Channel(s) : 2 channels
Sampling rate : 48.0 KHz
Compression mode : Lossy
Stream size : 31.1 MiB (8%)

Скриншоты

[www.cybertorrent.ru].t1818.torrent 
Торрент: Зарегистрирован [ 2018-02-16 08:44 ] · F085DA9DDB4EC1EC5FBB0329BD46CF542B4DB273

Скачать .torrent

Скачать

56 KB

Статус: проверено
Скачан: 0 раз
Размер: 10,72 GB
Профиль [ЛС]
Показать сообщения:    

Текущее время: 21-Июн 08:20

Часовой пояс: UTC ± 0



Вы не можете начинать темы
Вы не можете отвечать на сообщения
Вы не можете редактировать свои сообщения
Вы не можете удалять свои сообщения
Вы не можете голосовать в опросах
Вы не можете прикреплять файлы к сообщениям
Вы можете скачивать файлы