Статистика раздачи
Размер:  7,99 GB   |    Зарегистрирован:  8 месяцев 6 дней   |    Скачан:  0 раз

Полного источника не было: Никогда

 
   
 
 

irkutsk ®

Пол:
Не указан
Стаж:
8 месяцев 7 дней
Сообщений:
620

Южный Парк / South Park-
  • Страна: США
  • Жанр: ситком, чёрный юмор, сатира, комедия абсурда
  • Продолжительность: ~00:22:00 (одной серии)
  • Год выпуска: 2012
  • Перевод: профессиональный (двухголосый, закадровый) - Paramount Comedy
  • Русские субтитры:
  • есть (LazyMax (1-5 серии))
  • есть (yazzzzzva (6-14 серии))
    -
  • Режиссёр: Мэтт Стоун, Трей Паркер
  • Роли озвучивали: Мэтт Стоун, Трей Паркер, Айзек Хейз, Мэри Бергман, Элиза Шнайдер, Мона Маршалл, Эйприл Стюарт, Джон Хэнсен, Дженнифер Хауэлл, Эдриен Бирд
    -
  • Описание:
  • «Южный парк» (англ. South Park, МФА: [saʊθ pɑːɹk]) — американский мультсериал, который создают Трей Паркер и Мэтт Стоун. Второй по длительности анимационный сериал в истории американского телевидения после сериала «Симпсоны». Иногда название употребляется в непереведённом виде как «Саут-Парк» или «Саус-Парк». Выпускается кабельным телеканалом Comedy Central с 1997 года. Основу сюжета составляют приключения четырёх мальчиков и их друзей, живущих в маленьком городке Саут-Парк, штат Колорадо. Сериал высмеивает недостатки американской культуры и текущие мировые события, а также подвергает критике множество глубоких убеждений и табу посредством пародии и чёрного юмора. «Южный парк» выходит поздно вечером и позиционируется как мультфильм для взрослых.
  • Шоу славится своим освещением текущих мировых событий. Работа над каждой серией ведётся в два этапа: на первом авторы придумывают общую концепцию и сюжет, а на втором — менее чем за неделю до премьерного показа — дорабатывают их деталями, что позволяет быстро реагировать на новости.
  • На настоящий момент в эфир вышло уже 17 сезонов мультсериала. Начиная с восьмого, все последующие сезоны шоу выходят в два этапа: половина весной и половина осенью, с перерывом на лето. На данный момент контракт создателей сериала продлён до 2016 года, то есть после 15-го выйдет ещё как минимум два сезона, на которые был изначально продлён сериал, а потом ещё три сезона, на которые сериал был продлён в ноябре 2011 года.
  • В России показ сериала проходит на телеканалах «2x2» и Paramount Comedy. Первые два сезона и полнометражный фильм перевёл Дмитрий «Goblin» Пучков. Впервые демонстрацию сериала в России начал канал Ren-TV, где он изначально выходил под названием «Стрёмный городок Cаус Парк» — для этих серий была выполнена профессиональная озвучка по заказу канала, текст читали актёры: Александр Клюквин и Людмила Гнилова, позже в MTV-озвучке «Южного парка» дуэтом работали «голоса канала» — Евгений Рыбов и Мария Трындяйкина.
    -
  • Релиз: eugeen
  • Отдельное спасибо: BOZX и kickass
    -
  • Ссылка на предыдущие и альтернативные раздачи
  • Семпл
    -
  • Качество: BDRip 720p
  • Формат: MKV
  • Видео: MPEG4 Video (H264), 1280x720, 23.976fps
  • Аудио:
  • Dolby AC3, 48000Hz, stereo, 192kbps (Russian: Paramount Comedy)
  • Dolby AC3, 48000Hz, 6ch, 640kbps (English)
  • Субтитры:
  • UTF-8 (Russian: LaxyMax (1-5 серии))
  • UTF-8 (Russian: yazzzzzva (6-14 серии))
  • UTF-8 (English)

    Список серий

  • 01. Перевёрнутая наездница / Reverse Cowgirl
  • 02. Деньги в обмен на золото / Cash for Gold
  • 03. Фэйсхиллинг / Faith Hilling
  • 04. Жидокабра / Jewpacabra
  • 05. Яйца Баттерса / Butterballs
  • 06. Лучше бы я никогда не ездил на канатную дорогу / I Should Have Never Gone Ziplining
  • 07. Картман находит любовь / Cartman Finds Love
  • 08. Сарказмобол / Sarcastaball
  • 09. Поднимая планку / Raising the Bar
  • 10. Внебезопасность / Insecurity
  • 11. Голос предков / Going Native
  • 12. Кошмар на Фейстайме / Nightmare on Facetime
  • 13. Браслет для аплодисментов / A Scause for Applause
  • 14. Обама победил! / Obama Wins!
  • Подробные технические данные

    General
    Unique ID : 248894043858174517273584999694256656414 (0xBB3F3FCBDF8CEEC9B68C2CB932A5501E)
    Format : Matroska
    Format version : Version 4 / Version 2
    File size : 584 MiB
    Duration : 22mn 24s
    Overall bit rate : 3 646 Kbps
    Encoded date : UTC 2013-12-12 07:20:45
    Writing application : mkvmerge v6.6.0 ('The Edge Of The In Between') built on Dec 1 2013 17:55:00
    Writing library : libebml v1.3.0 + libmatroska v1.4.1
    Video
    ID : 1
    Format : AVC
    Format/Info : Advanced Video Codec
    Format profile : High@L4.1
    Format settings, CABAC : Yes
    Format settings, ReFrames : 5 frames
    Codec ID : V_MPEG4/ISO/AVC
    Duration : 22mn 24s
    Bit rate : 2 820 Kbps
    Width : 1 280 pixels
    Height : 720 pixels
    Display aspect ratio : 16:9
    Frame rate mode : Constant
    Frame rate : 23.976 fps
    Color space : YUV
    Chroma subsampling : 4:2:0
    Bit depth : 8 bits
    Scan type : Progressive
    Bits/(Pixel*Frame) : 0.128
    Stream size : 439 MiB (75%)
    Writing library : x264 core 133 r2334 a3ac64b
    Encoding settings : cabac=1 / ref=5 / deblock=1:0:0 / analyse=0x3:0x133 / me=umh / subme=7 / psy=1 / psy_rd=1.00:0.00 / mixed_ref=1 / me_range=16 / chroma_me=1 / trellis=1 / 8x8dct=1 / cqm=0 / deadzone=21,11 / fast_pskip=0 / chroma_qp_offset=-2 / threads=12 / lookahead_threads=2 / sliced_threads=0 / nr=0 / decimate=1 / interlaced=0 / bluray_compat=0 / constrained_intra=0 / bframes=3 / b_pyramid=2 / b_adapt=1 / b_bias=0 / direct=1 / weightb=1 / open_gop=0 / weightp=2 / keyint=250 / keyint_min=23 / scenecut=40 / intra_refresh=0 / rc_lookahead=40 / rc=2pass / mbtree=1 / bitrate=2820 / ratetol=1.0 / qcomp=0.60 / qpmin=0 / qpmax=69 / qpstep=4 / cplxblur=20.0 / qblur=0.5 / ip_ratio=1.40 / aq=1:1.00
    Language : English
    Default : Yes
    Forced : No
    Audio #1
    ID : 2
    Format : AC-3
    Format/Info : Audio Coding 3
    Mode extension : CM (complete main)
    Format settings, Endianness : Big
    Codec ID : A_AC3
    Duration : 22mn 24s
    Bit rate mode : Constant
    Bit rate : 192 Kbps
    Channel(s) : 2 channels
    Channel positions : Front: L R
    Sampling rate : 48.0 KHz
    Bit depth : 16 bits
    Compression mode : Lossy
    Delay relative to video : 4ms
    Stream size : 30.8 MiB (5%)
    Title : (Paramount Comedy)
    Language : Russian
    Default : Yes
    Forced : No
    Audio #2
    ID : 3
    Format : AC-3
    Format/Info : Audio Coding 3
    Mode extension : CM (complete main)
    Format settings, Endianness : Big
    Codec ID : A_AC3
    Duration : 22mn 24s
    Bit rate mode : Constant
    Bit rate : 640 Kbps
    Channel(s) : 6 channels
    Channel positions : Front: L C R, Side: L R, LFE
    Sampling rate : 48.0 KHz
    Bit depth : 16 bits
    Compression mode : Lossy
    Stream size : 103 MiB (18%)
    Title : (Original)
    Language : English
    Default : No
    Forced : No
    Text #1
    ID : 4
    Format : UTF-8
    Codec ID : S_TEXT/UTF8
    Codec ID/Info : UTF-8 Plain Text
    Title : (LazyMax)
    Language : Russian
    Default : No
    Forced : No
    Text #2
    ID : 5
    Format : UTF-8
    Codec ID : S_TEXT/UTF8
    Codec ID/Info : UTF-8 Plain Text
    Title : (Comedy Central)
    Language : English
    Default : No
    Forced : No
    Menu
    00:00:00.000 : en:00:00:00.000
    00:00:33.992 : en:00:00:33.992
    00:10:06.272 : en:00:10:06.272
    00:16:28.654 : en:00:16:28.654
    00:21:52.937 : en:00:21:52.937

    Скриншоты

    [www.cybertorrent.ru].t1811.torrent 
    Торрент: Зарегистрирован [ 2018-02-16 08:44 ] · 046A80BF1036BF11A7F29847DC8FEDA7AD0DA330

    Скачать .torrent

    Скачать

    12 KB

    Статус: проверено
    Скачан: 0 раз
    Размер: 7,99 GB
    Профиль [ЛС]
    Показать сообщения:    

    Текущее время: 22-Окт 23:13

    Часовой пояс: UTC ± 0



    Вы не можете начинать темы
    Вы не можете отвечать на сообщения
    Вы не можете редактировать свои сообщения
    Вы не можете удалять свои сообщения
    Вы не можете голосовать в опросах
    Вы не можете прикреплять файлы к сообщениям
    Вы можете скачивать файлы
    Torrents24.ru открытый BitTorrent Torrents24.pl открытый BitTorrent CyberTorrent.ru открытый BitTorrent BtList.ru рейтинг BitTorrent трекеров Яндекс.Метрика