BitTorrent клиенты



Дракула / Dracula (Дэн Кертис / Dan Curtis) [1974, Великобритания, ужасы, экранизация, DVDRip] VO (valteron)

Ответить на тему
 
Автор Сообщение

Keeper ®

Пол: Не указан

Стаж: 1 год

Сообщений: 499

Создавать темы 05-Фев-2018 18:30

[Цитировать]

Дракула / Dracula
Страна: Великобритания
Студия: Latglen Ltd.
Жанр: ужасы, экранизация
Год выпуска: 1974
Продолжительность: 01:38:08
Перевод: Одноголосый закадровый valteron
Субтитры: нет
Оригинальная аудиодорожка: нет
Режиссер: Дэн Кертис / Dan Curtis
В ролях: Джек Пэланс, Саймон Уорд, Найджел Девенпорт, Памела Браун, Фиона Льюис, Пенелопа Хорнер, Мюррэй Браун, Вирджиния Уэтерелл, Барбара Линдли, Сара Дуглас
Описание: Легендарный трансильванский граф отправляется в Англию, чтобы воссоединиться с реинкарнацией своей старой возлюбленной и уничтожить всех, кто осмелится ему в этом помешать.
Доп. информация:
Видеоряд взят из раздачи http://rutracker.org/forum/viewtopic.php?t=2400201
Сэмпл: http://sendfile.su/1243130
Качество видео: DVDRip
Формат видео: AVI
Видео: 656x496 (1.32:1), 23.976 fps, XviD build 47 ~877 kbps avg, 0.11 bits/(pixel*frame)
Аудио: 48 kHz, MPEG Layer 3, 2 ch, ~128 kbps avg

MediaInfo

General
Complete name : F:\RIP\Torrent Upload\Dracula (1974).avi
Format : AVI
Format/Info : Audio Video Interleave
File size : 713 MiB
Duration : 1h 38mn
Overall bit rate : 1 015 Kbps
Writing application : VirtualDubMod 1.5.10.2 (build 2542/release)
Writing library : VirtualDubMod build 2542/release
Video
ID : 0
Format : MPEG-4 Visual
Format profile : Advanced Simple@L5
Format settings, BVOP : 1
Format settings, QPel : No
Format settings, GMC : No warppoints
Format settings, Matrix : Custom
Codec ID : XVID
Codec ID/Hint : XviD
Duration : 1h 38mn
Bit rate : 878 Kbps
Width : 656 pixels
Height : 496 pixels
Display aspect ratio : 4:3
Frame rate : 23.976 fps
Color space : YUV
Chroma subsampling : 4:2:0
Bit depth : 8 bits
Scan type : Progressive
Compression mode : Lossy
Bits/(Pixel*Frame) : 0.113
Stream size : 616 MiB (86%)
Writing library : XviD 1.2.0.dev47 (UTC 2006-11-01)
Audio
ID : 1
Format : MPEG Audio
Format version : Version 1
Format profile : Layer 3
Mode : Joint stereo
Mode extension : MS Stereo
Codec ID : 55
Codec ID/Hint : MP3
Duration : 1h 38mn
Bit rate mode : Constant
Bit rate : 128 Kbps
Channel(s) : 2 channels
Sampling rate : 48.0 KHz
Compression mode : Lossy
Stream size : 89.8 MiB (13%)
Alignment : Aligned on interleaves
Interleave, duration : 42 ms (1.00 video frame)
Interleave, preload duration : 504 ms
Language : English

Скриншоты

[Профиль] [ЛС]
Показать сообщения:    
Ответить на тему

Текущее время: 19-Фев 16:56

Часовой пояс: UTC + 3



Вы не можете начинать темы
Вы не можете отвечать на сообщения
Вы не можете редактировать свои сообщения
Вы не можете удалять свои сообщения
Вы не можете голосовать в опросах
Вы не можете прикреплять файлы к сообщениям
Вы можете скачивать файлы