Статистика раздачи
Размер:  8,71 GB   |    Зарегистрирован:  8 месяцев 3 дня   |    Скачан:  0 раз

Полного источника не было: Никогда

 
   
 
 

lom ®

Пол:
Не указан
Стаж:
8 месяцев 4 дня
Сообщений:
195

Наруто: Ураганные хроники
Naruto: Shippuuden
Страна: Япония
Год выпуска: 2007-20XX
Жанр: приключения, комедия, боевые искусства, сёнэн
Тип: TV
Продолжительность: XXX эп., 25 мин.
Режиссер: Датэ Хаято
Снято по манге: Naruto
Автор оригинала: Кисимото Масаси
Выпуск: c 15.02.2007
Трансляция: в 19:30 [вечерний сеанс] на TV Tokyo
Студия:
Описание: В мире Наруто незаметно пролетели два года. Бывшие новички пополнили ряды опытных синоби в ранге тюнин и дзёнин. Главные герои не сидели на месте – каждый стал учеником одного из легендарных Саннин – трех великих ниндзя Конохи. Парень в оранжевом продолжил обучение у мудрого, но эксцентричного Дзирайи, постепенно восходя на новую ступень боевого мастерства. Сакура выдвинулась в помощницы и доверенные лица целительницы Цунадэ – нового вождя Деревни Листвы. Ну а Саскэ, чья гордыня привела к изгнанию из Конохи, вступил во временный союз со зловещим Оротимару, причем каждый считает, что лишь использует другого до поры до времени.
Краткая передышка закончилась, и события в очередной раз понеслись с ураганной быстротой. В Конохе вновь прорастают семена старых раздоров, посеянные первыми Хокагэ. Таинственный лидер Акацуки привел в действие план обретения мирового господства. Неспокойно в Деревне Песка и соседних странах, везде всплывают старые тайны, и ясно, что когда-то придется платить по счетам. Долгожданное продолжение манги вдохнуло новую жизнь в сериал и новую надежду в сердца бесчисленных фанатов!
© Hollow, World Art
Переведены, Озвучены и Раздаются:

Список серий

...
315. Затянувшийся снегопад
316. Альянс воскрешенных шиноби
317. Шино против Торуне!
318. Пустота в сердце: другой Джинчуурики
319. Душа, живущая в марионетке
320. Беги, Омои!
321. Прибытие Подкрепления
322. Учиха Мадара
323. Ансамбль Пяти Каге
324. Нерушимая маска и Взрывные пузыри
325. Джинчуурики против Джинчуурики
326. Четырёххвостый. Мудрый король обезьян!
327. Девятихвостый
328. Курама
329. Командный Дуэт
330. Предсказание Победы
331. Глаза, что смотрят во тьму
332. Каменная Воля
333. Риск использования Нечестивого Воскрешения
334. Брат за Брата
335. Коноха для каждого
336. Якуши Кабуто
337. Изанами в действии
338. Изанами и Изанаги
339. Я всегда буду любить тебя...
340. Нечестивое Воскрешение... Развейся!
341. Возвращение Орочимару
342. Секрет пространственно-временной техники
343. Да кто ты такой?!
344. Обито и Мадара
345. Я в аду...
346. Царство грез
347. Крадущаяся тень
348. Новые Акацки
349. Маска, скрывающая сердце
350. Смерть Минато
351. Клетки Хаширамы
352. Шиноби-отступник: Орочимару
353. Подопытный Орочимару
354. Их пути
...
Приятного просмотра !!!
/ При обновлении - не забываем перекачивать .torrent файл, делать ручное перехеширование ! /
А также из серии о НАРУТО с озвучкой от NIKITOSa:
Полнометражные фильмы о НАРУТО
Наруто Фильм 1: Великая Миссия! Защитить Принцессу Страны Снега
Наруто Фильм 2: Великое противостояние! Призрачные руины земных недр
Наруто Фильм 3: Грандиозный переполох, бунт зверей на острове Миказуки
Наруто Фильм 4: Ураганные Хроники Наруто Фильм 1
Наруто Фильм 5: Ураганные Хроники Наруто Фильм 2: Узы
Наруто Фильм 6: Ураганные Хроники Наруто Фильм 3: Наследники воли Огня
Наруто Фильм 7: Ураганные Хроники Наруто Фильм 4: Затерянная Башня
Наруто Фильм 8: Ураганные Хроники Наруто Фильм 5: Кровавая Тюрьма!
Сериалы о Наруто
Наруто Ураганные хроники сериал 2 сезон часть 1
Наруто Ураганные хроники сериал 2 сезон часть 2
Наруто Ураганные хроники сериал 2 сезон часть 3
Качество: WEBRip
Тип релиза: Без хардсаба
Формат: AVI
Видео: XviD, 720x416, 23.976 кадр/сек, 970 Кбит/сек
Аудио 1: RUS - MP3 48000 Hz, Stereo, 192 kbps (в составе контейнера) [NIKITOS] [SHIZA Project] (муж., одноголосая)
Аудио 2: JAP - MP3 48000 Hz, Stereo, 192 kbps (в составе контейнера) [Original]

Подробные тех. данные

MediaInfo

Общее
Полное имя : D:\[SHIZA Project] Naruto Shippuuden TV2 [HWP]\[SHIZA Project] Naruto Shippuuden TV2 [315 of XXX] [RUS JAP] [HWP] [720x416 XviD] [NIKITOS].avi
Формат : AVI
Формат/Информация : Audio Video Interleave
Размер файла : 227 Мбайт
Продолжительность : 23 м.
Общий поток : 1368 Кбит/сек
Программа кодирования : VirtualDubModRus 1.5.10.2 (build 2542/release)
Библиотека кодирования : VirtualDubMod build 2542/release
Видео
Идентификатор : 0
Формат : MPEG-4 Visual
Профиль формата : Advanced Simple@L5
Параметр BVOP формата : 1
Параметр QPel формата : Нет
Параметр GMC формата : Без точки перехода
Параметр матрицы формата : Default (MPEG)
Идентификатор кодека : XVID
Идентификатор кодека/Подсказка : XviD
Продолжительность : 23 м.
Битрейт : 970 Кбит/сек
Ширина : 720 пикселей
Высота : 416 пикселей
Соотношение сторон : 16:9
Частота кадров : 23,976 кадра/сек
Цветовое пространство : YUV
Субдискретизация насыщенности : 4:2:0
Битовая глубина : 8 бит
Тип развёртки : Прогрессивная
Метод сжатия : С потерями
Бит/(Пиксели*Кадры) : 0.135
Размер потока : 161 Мбайт (71%)
Библиотека кодирования : XviD 1.1.2 (UTC 2006-11-01)
Аудио #1
Идентификатор : 1
Формат : MPEG Audio
Версия формата : Version 1
Профиль формата : Layer 3
Режим : Joint stereo
Расширение режима : MS Stereo
Идентификатор кодека : 55
Идентификатор кодека/Подсказка : MP3
Продолжительность : 23 м.
Вид битрейта : Постоянный
Битрейт : 192 Кбит/сек
Каналы : 2 канала
Частота : 48,0 КГц
Метод сжатия : С потерями
Размер потока : 31,8 Мбайт (14%)
Выравнивание : Соединение по промежуткам
Продолжительность промежутка : 42 мс. (1,00 видеокадр)
Время предзагрузки промежутка : 504 мс.
Заголовок : Russian [NIKITOS]
Библиотека кодирования : LAME3.98.2
Аудио #2
Идентификатор : 2
Формат : MPEG Audio
Версия формата : Version 1
Профиль формата : Layer 3
Режим : Joint stereo
Расширение режима : MS Stereo
Идентификатор кодека : 55
Идентификатор кодека/Подсказка : MP3
Продолжительность : 23 м.
Вид битрейта : Постоянный
Битрейт : 192 Кбит/сек
Каналы : 2 канала
Частота : 48,0 КГц
Метод сжатия : С потерями
Размер потока : 31,8 Мбайт (14%)
Выравнивание : Соединение по промежуткам
Продолжительность промежутка : 42 мс. (1,00 видеокадр)
Время предзагрузки промежутка : 504 мс.
Заголовок : Japanese [Original]
Библиотека кодирования : LAME3.98.2

avdump

File: D:\[SHIZA Project] Naruto Shippuuden TV2 [315 of XXX] [RUS JAP] [HWP] [720x416 XviD] [NIKITOS].avi
Duration: 00:23:10 (1389.67)
Track #1: video
lang: Unknown (1)
codc: XVID (XviD0046) -> XviD (17)
reso: 720x416 -> Unknown
fram: 23.976 fps
rate: 970 kbps (970.127)
dura: 00:23:10 (1389.67)
size: 160.71 MB (168519083)
Track #2: audio (Russian [NIKITOS])
lang: Unknown (1)
codc: MPEG-1A L3 -> MP3 CBR (5)
chan: 2 -> Stereo
samp: 48000 Hz
rate: 192 kbps (192.00)
dura: 00:23:10 (1389.67)
size: 31.81 MB (33352128)
Track #3: audio (Japanese [Original])
lang: Unknown (1)
codc: MPEG-1A L3 -> MP3 CBR (5)
chan: 2 -> Stereo
samp: 48000 Hz
rate: 192 kbps (192.00)
dura: 00:23:10 (1389.67)
size: 31.81 MB (33352128)
Sizes: (check sanity)
disk: 226.65 MB (237656064)
trac: 224.33 MB (235223339) [based on track size]
bitr: 224.33 MB (235222962) [based on bitrate]
tdif: 2.32 MB (2432725) 1.02%
bdif: 2.32 MB (2433101) 1.02%

Скриншоты

Отличия от существующих раздач

продолжение http://cybertorrent.ru/viewtopic.php?t=4273942
[www.cybertorrent.ru].t1809.torrent 
Торрент: Зарегистрирован [ 2018-02-16 08:44 ] · B18E7EBE8171E1AA5EEB4CF0F271A22DA7B974EB

Скачать .torrent

Скачать

49 KB

Статус: проверено
Скачан: 0 раз
Размер: 8,71 GB
Профиль [ЛС]
Показать сообщения:    

Текущее время: 20-Окт 02:35

Часовой пояс: UTC ± 0



Вы не можете начинать темы
Вы не можете отвечать на сообщения
Вы не можете редактировать свои сообщения
Вы не можете удалять свои сообщения
Вы не можете голосовать в опросах
Вы не можете прикреплять файлы к сообщениям
Вы можете скачивать файлы
Torrents24.ru открытый BitTorrent Torrents24.pl открытый BitTorrent CyberTorrent.ru открытый BitTorrent BtList.ru рейтинг BitTorrent трекеров Яндекс.Метрика