Статистика раздачи
Размер:  20,96 GB   |    Зарегистрирован:  8 месяцев 5 дней   |    Скачан:  0 раз

Полного источника не было: Никогда

 
   
 
 

DR_KTO ®

Пол:
Не указан
Стаж:
8 месяцев 6 дней
Сообщений:
105

Давайте рисовать! (вып. 21-100)
Год выпуска: 2009-2013
Страна: Россия
Жанр: Детская телепередача
Продолжительность: 80 ~ 20 минут
Перевод: Не требуется
Русские субтитры: нет
Описание: Добрая фея Фиалка и ее помощник Каляка-Маляка научат рисовать всех-всех-всех, главное — желание!
Присоединяйтесь!
Доп. информация: Запись с канала "Карусель". Нумерация выпусков - с него же. В раздаче выпуски с номерами с 01 по 100 ( за исключением
выпусков: №№01-20. При появлении этих выпусков (надеюсь) раздача будет дополняться.

Список выпусков/серий

21. Радужные овечки.avi
22. Ёжик-почтальон.avi
23. Птица желаний.avi
24. Гостеприимная улитка.avi
25. Волшебное солнышко.avi
26. Сказочные рыбки.avi
27. Волшебный воздушный змей.avi
28. Скатерть-самобранка.avi
29. Царевна-лебедь.avi
30. Ночной город.avi
31. Дружелюбный пони.avi
32. 9 мая (Открытка ветерану).avi
33. Путешествие на воздушном шаре.avi
34. Слон-путешественник.avi
35. Чудо-одуванчики.avi
36. Бабочки на цветочной поляне.avi
37. Божья коровка.avi
38. Город мечты.avi
39. Кораблик в море.avi
40. Солнечный лев.avi
41. Весёлая гусеница.avi
42. Дельфины.avi
43. Пушистые щенки.avi
44. Медовые пчёлки.avi
45. Весёлые петушки.avi
46. Стрекоза.avi
47. Лягушка-путешественница.avi
48. Сладкий сад.avi
49. Точки и кружочки.avi
50. Живые буквы.avi
51. Кувшин для джинна.avi
52. Бумажный медвежонок.avi
53. Кружилики.avi
54. Волшебная птица времени года.avi
55. Любопытные утята.avi
56. Пузырьковая галактика.avi
57. Волшебные подсолнухи.avi
58. Разноцветные черепашки.avi
59. Необычный жираф.avi
60. Необычные птицы.avi
61. Осенний пейзаж.avi
62. Отражение.avi
63. Лунные цыплята.avi
64. Чудо-картина.avi
65. Весёлые мышата.avi
66. Звонкие колокольчики.avi
67. Еловая веточка.avi
68. Мишка на Севере.avi
69. Снегири.avi
70. Дворец Деда Мороза.avi
71. Шляпа фокусника.avi
72. Обезьянки-акробаты.avi
73. Сорока-белобока.avi
74. Колючие ёжики.avi
75. Чудесные зонтики.avi
76. Бумажная зебра.avi
77. Цветочные жители.avi
78. Кит в океане.avi
79. Гречневый пудель.avi
80. Кошка на коврике.avi
81. Лиса из сказки.avi
82. Музыкальная козочка.avi
83. Пушистые белки.avi
84. Пёстрый попугай.avi
85. Медуза-балерина.avi
86. Пряничный зайчик.avi
87. Радужные качели.avi
88. Волшебные дороги.avi
89. Кружевной олень.avi
90. Волшебная чашка.avi
91. Мудрая сова.avi
92. Воздушные человечки.avi
93. Смешной динозаврик.avi
94. Смешные клоуны.avi
95. Павлиний хвост.avi
96. Банка варенья.avi
97. Морской конёк.avi
98. Волшебная корова.avi
99. Муравейник.avi
100. Ручная полянка.avi
ВНИМАНИЕ! 06.06.15 добавлены выпуски №32. 9 мая (Открытка ветерану).avi и №37. Божья коровка.avi
Релиз:
Ссылка на предыдущие и альтернативные раздачи:
http://cybertorrent.ru/tracker.php?nm=%D0%94%D0%B0%D0%B2%D0%B0%D0%B9%D1%82%D0...0%B0%D1%82%D1%8C
качество: SATRip
формат: AVI
Видео: 720x576 (4:3), 25 fps, XviD build 64 ~1800 kbps avg, 0.17 bit/pixel
Аудио: 48 kHz, MPEG Layer 3, 2 ch, ~128.00 kbps avg

MediaInfo

Полное имя : F:\Давайте рисовать 01-100\21. Радужные овечки.avi
Формат : AVI
Формат/Информация : Audio Video Interleave
Размер файла : 268 Мбайт
Продолжительность : 19 м.
Общий поток : 1937 Кбит/сек
Программа кодирования : Lavf54.63.100
Видео
Идентификатор : 0
Формат : MPEG-4 Visual
Профиль формата : Simple@L3
Параметр BVOP формата : Нет
Параметр QPel формата : Нет
Параметр GMC формата : Без точки перехода
Параметр матрицы формата : Default (H.263)
Идентификатор кодека : XVID
Идентификатор кодека/Подсказка : XviD
Продолжительность : 19 м.
Битрейт : 1796 Кбит/сек
Ширина : 720 пикселей
Высота : 576 пикселей
Соотношение сторон : 4:3
Частота кадров : 25,000 кадров/сек
Стандарт вещания : PAL
Цветовое пространство : YUV
Субдискретизация насыщенности : 4:2:0
Битовая глубина : 8 бит
Тип развёртки : Прогрессивная
Метод сжатия : С потерями
Бит/(Пиксели*Кадры) : 0.173
Размер потока : 249 Мбайт (93%)
Библиотека кодирования : XviD 64
Аудио
Идентификатор : 1
Формат : MPEG Audio
Версия формата : Version 1
Профиль формата : Layer 3
Идентификатор кодека : 55
Идентификатор кодека/Подсказка : MP3
Продолжительность : 19 м.
Вид битрейта : Постоянный
Битрейт : 128 Кбит/сек
Каналы : 2 канала
Частота : 48,0 КГц
Метод сжатия : С потерями
Размер потока : 17,7 Мбайт (7%)
Выравнивание : Соединение по промежуткам
Продолжительность промежутка : 24 мс. (0,60 видеокадр)
Время предзагрузки промежутка : 24 мс.

Скриншоты

[www.cybertorrent.ru].t1788.torrent 
Торрент: Зарегистрирован [ 2018-02-16 08:44 ] · 2EA8E93634DD8B0BF50832001D0AA65D0D5A597F

Скачать .torrent

Скачать

111 KB

Статус: проверено
Скачан: 0 раз
Размер: 20,96 GB
Профиль [ЛС]
Показать сообщения:    

Текущее время: 22-Окт 05:54

Часовой пояс: UTC ± 0



Вы не можете начинать темы
Вы не можете отвечать на сообщения
Вы не можете редактировать свои сообщения
Вы не можете удалять свои сообщения
Вы не можете голосовать в опросах
Вы не можете прикреплять файлы к сообщениям
Вы можете скачивать файлы
Torrents24.ru открытый BitTorrent Torrents24.pl открытый BitTorrent CyberTorrent.ru открытый BitTorrent BtList.ru рейтинг BitTorrent трекеров Яндекс.Метрика