Статистика раздачи
Размер:  260 MB   |    Зарегистрирован:  9 месяцев 25 дней   |    Скачан:  0 раз

Полного источника не было: Никогда

 
   
 
 

karapuz ®

Пол:
Не указан
Стаж:
9 месяцев 26 дней
Сообщений:
128

Скуби-Ду и страшное Пугало / Scooby-Doo and the Scarecrow
Страна: США
Жанр: Мультипликация
Продолжительность: 00:21:43
Год выпуска: 2013
Перевод: Профессиональный (многоголосый закадровый)
Русские субтитры: нет-Режиссёр: Майкл Гоген / Michael Goguen
Роли озвучивали: Минди Кон, Грей Делисле, Мэтью Лиллард, Фрэнк Уэлкер-Описание: В новой 22-х минутной серии "Скуби-Дy и страшное Пугало", Скуби и его команда охотников за привидениями приезжают на тихую ферму. Жители готовятся и празднику Хэллоуин, но не все в деревне тихо и спокойно. На местном кукурузном поле появляется пугало, которое оживила ведьма! Смогут ли наши вечноголодные герои оторваться от накрытого стола, чтобы решить зту загадку?-Релиз от -
СПАСИБО Vlad-201194 за предоставленный материал.-Качество: DVDRip
Формат: AVI
Видео: MPEG4, XviD, 720x400 (16:9), 25.000 fps, 1 471 Kbps (0.204 bit/pixel)
Аудио: AC-3, 48.0 KHz, 2 ch, 192 Kbps, CBR
Субтитры: отсутствуют
Семпл: Забираем тут

Подробные технические данные

Общее
Полное имя : F:\Scooby-Doo and the Scarecrow.avi
Формат : AVI
Формат/Информация : Audio Video Interleave
Размер файла : 260 Мбайт
Продолжительность : 21 м.
Общий поток : 1673 Кбит/сек
Программа кодирования : VirtualDubMod 1.5.10.2 (build 2542/release)
Библиотека кодирования : VirtualDubMod build 2542/release
Видео
Идентификатор : 0
Формат : MPEG-4 Visual
Профиль формата : Advanced Simple@L5
Параметр BVOP формата : 2
Параметр QPel формата : Нет
Параметр GMC формата : Без точки перехода
Параметр матрицы формата : Default (H.263)
Идентификатор кодека : XVID
Идентификатор кодека/Подсказка : XviD
Продолжительность : 21 м.
Битрейт : 1471 Кбит/сек
Ширина : 720 пикселей
Высота : 400 пикселей
Соотношение сторон : 16:9
Частота кадров : 25,000 кадров/сек
Цветовое пространство : YUV
Субдискретизация насыщенности : 4:2:0
Битовая глубина : 8 бит
Тип развёртки : Прогрессивная
Метод сжатия : С потерями
Бит/(Пиксели*Кадры) : 0.204
Размер потока : 228 Мбайт (88%)
Библиотека кодирования : XviD 1.2.1 (UTC 2008-12-04)
Аудио
Идентификатор : 1
Формат : AC-3
Формат/Информация : Audio Coding 3
Расширение режима : CM (complete main)
Параметр Endianness формата : Big
Идентификатор кодека : 2000
Продолжительность : 21 м.
Вид битрейта : Постоянный
Битрейт : 192 Кбит/сек
Каналы : 2 канала
Расположение каналов : Front: L R
Частота : 48,0 КГц
Битовая глубина : 16 бит
Метод сжатия : С потерями
Размер потока : 29,8 Мбайт (11%)
Выравнивание : Разделение по промежуткам
Продолжительность промежутка : 40 мс. (1,00 видеокадр)
Время предзагрузки промежутка : 500 мс.

Скриншоты


[www.cybertorrent.ru].t1785.torrent 
Торрент: Зарегистрирован [ 2018-02-16 08:44 ] · FD04E7FA8D2D1E1E8ABAA33A8DBA9BA20FB399C8

Скачать .torrent

Скачать

11 KB

Статус: проверено
Скачан: 0 раз
Размер: 260 MB
Профиль [ЛС]
Показать сообщения:    

Текущее время: 13-Дек 21:00

Часовой пояс: UTC ± 0



Вы не можете начинать темы
Вы не можете отвечать на сообщения
Вы не можете редактировать свои сообщения
Вы не можете удалять свои сообщения
Вы не можете голосовать в опросах
Вы не можете прикреплять файлы к сообщениям
Вы можете скачивать файлы
Torrents24.ru открытый BitTorrent Torrents24.pl открытый BitTorrent CyberTorrent.ru открытый BitTorrent BtList.ru рейтинг BitTorrent трекеров Яндекс.Метрика