BitTorrent клиенты



Скупой / L'Avaro (Тонино Черви / Tonino Cervi) [1990, Италия- Франция - Испания, комедия, DVDRip] VO (CСК+) + Original Ita

Ответить на тему
 
Автор Сообщение

Keeper ®

Пол: Не указан

Стаж: 1 год

Сообщений: 499

Создавать темы 05-Фев-2018 18:30

[Цитировать]

Скупой / L'Avaro
Страна: Италия- Франция - Испания
Жанр: комедия
Год выпуска: 1990
Продолжительность: 01:48:15
Перевод: Одноголосый закадровый CСК+
Субтитры: нет
Оригинальная аудиодорожка: итальянский
Режиссер: Тонино Черви / Tonino Cervi
В ролях:
Альберто Сорди - дон Арпагоне
Лаура Антонелли - Фрозина
Валери Эллейн - Мариана
Кристофер Ли - кардинал Спинози
Франко Ангрисано - дон Паолини
Мари Лафоре - Изабелла Спинози
Мигель Бозе - Валерио
Лючия Бозе - дона Эльвира
Карло Кроччоло - Мастро Симоне
Никола Фаррон - Клеанте
Нунция Фумо - Арджене
Франко Интерленги - Мастро Джакомо
Анна Канакис - Элиза
Маттиа Сбраджа - дон Оронте
Жак Серна - дон Гульельмо
Паоло Паолони - Папа Римский

Описание:
Спустя 10 лет после блистательной постановки мольеровского "Скупого" Луи де Фюнесом за тот же материал взялся Альберто Сорди вместе с режиссером Тонино Черви. Получился еще один шедевр - а как иначе, ведь это сам Альбертони, из его рук выходят исключительно шедевры! У Тонино Черви в этом фильме, кроме Сорди, естественно, в роли скупца Арпагоне, снялась плеяда звёзд - Лаура Антонелли в роли Фрозины, Кристофер Ли в качестве кардинала Спинози, Мари Лафоре, Лючия Бозе и др. Для тех, кто еще не знаком с великим творением Мольера, приведу краткую фабулу в интерпретации Черви и Сорди. Итак, купец и махинатор дон Арпагоне, чтобы избежать нежелательного брака с сестрой кардинала, должен немедленно жениться. В качестве свахи для поиска невесты он призывает пронырливую Фрозину, которая управляет принадлежащим опять-таки Арпагону подпольным казино-борделем. Фрозина устраивает для престарелого жениха кастинг невест - и где бы вы подумали? В церкви! Кардинал решает покарать строптивого Арпагона и лишить его самого ценного в жизни - золота и богатств, хранящихся в знаменитом сейфе купца. Однако его высокопреосвященство не знает, что хитрый дон Арпагоне уже давно нанял швейцарских механиков-часовщиков, чтобы они сделали для него защиту от воров - а также от глупых и самонадеянных церковников. Фильм снимался в исторических местах Рима и Ватикана.
Перевод фильма выполнен Lirik
Озвучание выполнено ССК+
Доп. информация:
IMDB
http://www.imdb.com/title/tt0096859/
Кинопоиск
http://www.kinopoisk.ru/film/5635/
Сэмпл: http://multi-up.com/1058955
Качество видео: DVDRip
Формат видео: AVI
Видео: XviD, 688х384, 16:9, 25.000 fps, 1 861 Kbps
Аудио: MP3, 44.1 KHz, 128 Kbps, 2 channels, русский
Аудио 2: AC-3, 48.0 KHz, 192 Kbps, 2 channels, итальянский

MediaInfo

General
Complete name : D:\РАЗДАЧИ\СКУПОЙ Тонино Черви 1990\Скупой Тонино Черви 1990\Скупой 1990.avi
Format : AVI
Format/Info : Audio Video Interleave
File size : 1.66 GiB
Duration : 1h 48mn
Overall bit rate : 2 195 Kbps
Video
ID : 0
Format : MPEG-4 Visual
Format profile : Advanced Simple@L5
Format settings, BVOP : 1
Format settings, QPel : No
Format settings, GMC : No warppoints
Format settings, Matrix : Default (H.263)
Codec ID : XVID
Codec ID/Hint : XviD
Duration : 1h 48mn
Bit rate : 1 861 Kbps
Width : 688 pixels
Height : 384 pixels
Display aspect ratio : 16:9
Frame rate : 25.000 fps
Color space : YUV
Chroma subsampling : 4:2:0
Bit depth : 8 bits
Scan type : Progressive
Compression mode : Lossy
Bits/(Pixel*Frame) : 0.282
Stream size : 1.41 GiB (85%)
Writing library : XviD 1.1.0 (UTC 2005-11-22)
Audio #1
ID : 1
Format : MPEG Audio
Format version : Version 1
Format profile : Layer 3
Codec ID : 55
Codec ID/Hint : MP3
Duration : 1h 48mn
Bit rate mode : Constant
Bit rate : 128 Kbps
Channel(s) : 2 channels
Sampling rate : 44.1 KHz
Compression mode : Lossy
Stream size : 99.1 MiB (6%)
Alignment : Split accross interleaves
Interleave, duration : 40 ms (1.00 video frame)
Interleave, preload duration : 500 ms
Audio #2
ID : 2
Format : AC-3
Format/Info : Audio Coding 3
Mode extension : CM (complete main)
Format settings, Endianness : Big
Codec ID : 2000
Duration : 1h 48mn
Bit rate mode : Constant
Bit rate : 192 Kbps
Channel(s) : 2 channels
Channel positions : Front: L R
Sampling rate : 48.0 KHz
Bit depth : 16 bits
Compression mode : Lossy
Stream size : 149 MiB (9%)
Alignment : Split accross interleaves
Interleave, duration : 40 ms (1.00 video frame)
Interleave, preload duration : 500 ms

Скриншот c названием фильма

Мои раздачи на рутрекере http://rutracker.org/forum/tracker.php?rid=10591342
[Профиль] [ЛС]
Показать сообщения:    
Ответить на тему

Текущее время: 21-Фев 23:36

Часовой пояс: UTC + 3



Вы не можете начинать темы
Вы не можете отвечать на сообщения
Вы не можете редактировать свои сообщения
Вы не можете удалять свои сообщения
Вы не можете голосовать в опросах
Вы не можете прикреплять файлы к сообщениям
Вы можете скачивать файлы