Статистика раздачи
Размер:  3,21 GB   |    Зарегистрирован:  10 месяцев 2 дня   |    Скачан:  0 раз

Полного источника не было: Никогда

 
   
 
 

0H0 ®

Пол:
Не указан
Стаж:
10 месяцев 3 дня
Сообщений:
156

Трансформеры: Прайм. Охотники на чудовищ / Transformers Prime
Страна: Япония, США, Digitalscape, K/O Paper Products, Darby Pop Productions, Hasbro Studios, Polygon Pictures
Жанр: Мультсериал, фантастика, боевик, приключения
Продолжительность: 13 х ~ 00:20:46
Год выпуска: 2013
Перевод: Профессиональный (дублированный) (ВГТРК)
Русские субтитры: нет
Режиссёр: Давид Хартман / David Hartman
Описание: Долгожданный третий сезон культового анимационного сериала о войнах трансформеров. Автоботы совместно с людьми начинают операцию по уничтожению укрепления десептиконов, которая оканчивается успехом. Даркмаунт разрушен, а враги вынуждены эвакуироваться. В бою принимает участие и восстановленный Смоукскрином Оптимус, — он снова возглавляет автоботов. Автоботы выясняют, что десептиконы разрабатывают план возрождения кибертронских драконов, и пытаются помешать им. Враги успевают сохранить достаточно генного материала для создания нового предакона, который, как надеется Шоквейв, сможет охотиться на автоботов. Созданный им предакон по имени Предакинг оказывается разумным трансформером, и он готов сражаться против автоботов.
Список серий:
01. Даркмаунт, штат Невада / Darkmount, NV
02. По одиночке / Scattered
03. Добыча / Prey
04. Штурм / Rebellion
05. Операция «Предакон» / Project Predacon
06. Субординация / Chain of Command
07. Один в поле не воин / Plus one
08. Жажда / Thirst
09. Эволюция / Evolution
10. Минус один / Minus One
11. Убеждение / Persuasion
12. Синтез / Synthesis
13. Омега-Замок / Deadlock
Ссылка на предыдущие и альтернативные раздачи: http://cybertorrent.ru/tracker.php?nm=Transformers%20Prime
Семпл: http://multi-up.com/930095
Качество: SATRip
Формат: AVI
Видео: Xvid, 720x544, 25fps, 1 500 Kbps
Аудио: AC3, 48000Hz, stereo, 192kbps
Субтитры: отсутствуют

Подробные технические данные

J:\Moi_zapisi\Трансформеры Прайм. Охотники на чудовищ.(3.сезон).2013.XviD.SATRip\01. Даркмаунт, штат Невада.avi
General
Complete name : J:\Moi_zapisi\Трансформеры Прайм. Охотники на чудовищ.(3.сезон).2013.XviD.SATRip\01. Даркмаунт, штат Невада.avi
Format : AVI
Format/Info : Audio Video Interleave
File size : 252 MiB
Duration : 20mn 45s
Overall bit rate : 1 700 Kbps
Movie name : 01. Darkmount, NV
Director : SATRip by Thunder
Writing application : VirtualDubMod 1.5.10.3 | www.virtualdub-fr.org || (build 2550/release)
Original source form/Name : Cartoon
Video #0
ID : 0
Format : MPEG-4 Visual
Format profile : Advanced Simple@L5
Format settings, BVOP : Yes
Format settings, QPel : No
Format settings, GMC : No warppoints
Format settings, Matrix : Default (H.263)
Codec ID : XVID
Codec ID/Hint : XviD
Duration : 20mn 45s
Bit rate : 1 498 Kbps
Width : 720 pixels
Height : 544 pixels
Display aspect ratio : 4:3
Frame rate : 25.000 fps
Color space : YUV
Chroma subsampling : 4:2:0
Bit depth : 8 bits
Scan type : Progressive
Bits/(Pixel*Frame) : 0.153
Stream size : 222 MiB (88%)
Writing library : XviD 1.2.1 (UTC 2008-12-04)
Audio #1
ID : 1
Format : AC-3
Format/Info : Audio Coding 3
Mode extension : CM (complete main)
Codec ID : 2000
Duration : 20mn 45s
Bit rate mode : Constant
Bit rate : 192 Kbps
Channel(s) : 2 channels
Channel positions : Front: L R
Sampling rate : 48.0 KHz
Bit depth : 16 bits
Stream size : 28.5 MiB (11%)
Alignment : Split accross interleaves
Interleave, duration : 40 ms (1.00 video frame)
Interleave, preload duration : 500 ms

Скриншоты


[www.cybertorrent.ru].t1740.torrent 
Торрент: Зарегистрирован [ 2018-02-16 08:44 ] · 01C92BDE36DBC05156FC46360445FB3E015E9F9E

Скачать .torrent

Скачать

34 KB

Статус: проверено
Скачан: 0 раз
Размер: 3,21 GB
Профиль [ЛС]
Показать сообщения:    

Текущее время: 18-Дек 11:12

Часовой пояс: UTC ± 0



Вы не можете начинать темы
Вы не можете отвечать на сообщения
Вы не можете редактировать свои сообщения
Вы не можете удалять свои сообщения
Вы не можете голосовать в опросах
Вы не можете прикреплять файлы к сообщениям
Вы можете скачивать файлы
Torrents24.ru открытый BitTorrent Torrents24.pl открытый BitTorrent CyberTorrent.ru открытый BitTorrent BtList.ru рейтинг BitTorrent трекеров Яндекс.Метрика