Статистика раздачи
Размер:  4,16 GB   |    Зарегистрирован:  10 месяцев 2 дня   |    Скачан:  0 раз

Полного источника не было: Никогда

 
   
 
 

NINJA ®

Пол:
Не указан
Стаж:
10 месяцев 3 дня
Сообщений:
84

Чешская анимация - Гарик Секо / Garik Seco Film Works
Страна: Чехословакия
Жанр: Анимация, комбинированный фильм.
Продолжительность: 01:24:15
Год выпуска: 1976-1988
Перевод: Отсутствует
Русские субтитры: нет
Режиссёр: Garik Seko / Гарик Секо
Описание: Сборник из семи анимационных фильмов Гарика Секо (род. 1935 г. Тбилиси, Грузия - ум.1994 г. Прага, Чехия) - мастера чешской анимации, дебютировавшего как режиссер в 1964 году, а до этого успевшего поучиться сразу у двух славных старших коллег – у Иржи Трнки и Гермины Тырловой. От Трнки он перенял необычайные навыки одушевителя, способного убедительно оживить любой предмет, а у Тырловой научился неожиданно использовать фактуру материала. Свои первые фильмы Секо делает из камней, ниток, проволоки, а впоследствии занимается и одушевлением объектов, снимая фильмы про пуговицы или историю про насыщенную жизнь обуви.
Список мультфильмов:
1. «O Mistru Hanušovi» - О Мастере Янусе. (1976)
2. «Faustův dům» - Дом Фауста. (1977)
3. «Ex libris» - Экслибрис. (1982)
4. «Shoe show aneb botky mají pré» - Обувное шоу. (1984)
5. «...No, Pane Kaktus...?!» - …Ну, Господин Кактус…?! (1986)
6. «Můj kamarád tiká» - Мой друг будильничек. (1987)
7. «Vylez, zbabělče!» - Вылезай, трус! (1988)
Доп. материалы: трейлер к японскому изданию, посвященный чешской анимации.
Доп. информация: Диск японский, оригинальный, меню статичное, неозвученное.
http://www.csfd.cz/tvurce/25905-garik-seko/
Семпл: http://yadi.sk/d/9Nmb059nDAbTC
Качество: DVD5
Формат: DVD-video
Видео: MPEG Video, NTSC 4:3 (720x480) VBR, 29,970 кадров/сек
Аудио: AC3, 2/0ch, 256 Кбит/сек, 48,0 КГц
Субтитры: Японские

DVDInfo

Title: Acer
Size: 4.16 Gb ( 4 356 882 KBytes ) - DVD-5
Enabled regions: 1, 2, 3, 4, 5, 6, 7, 8
VTS_01 :
Play Length: 01:22:25+00:01:44
Video: NTSC 4:3 (720x480) VBR
Audio:
Japanese (Dolby AC3, 2 ch)
Subtitles:
Japanese
Chinese
Chinese
Menu Video:
NTSC 4:3 (720x480) VBR
Menu Audio:
Not specified (Dolby AC3, 2 ch)
Menu Subtitles:
Not specified
Menu Japanese Language Unit :
Root Menu

MediaInfo

Общее
Полное имя : C:\Торренты\Мультфильмы\COBM-5449\VIDEO_TS\COBM-5449.index\COBM-5449_T01 T80 2_0ch 256Kbps DELAY 0ms.ac3
Формат : AC-3
Формат/Информация : Audio Coding 3
Размер файла : 154 Мбайт
Продолжительность : 1 ч. 24 м.
Режим общего битрейта : Постоянный
Общий поток : 256 Кбит/сек
Аудио
Формат : AC-3
Формат/Информация : Audio Coding 3
Расширение режима : CM (complete main)
Параметр Endianness формата : Big
Продолжительность : 1 ч. 24 м.
Вид битрейта : Постоянный
Битрейт : 256 Кбит/сек
Каналы : 2 канала
Расположение каналов : Front: L R
Частота : 48,0 КГц
Битовая глубина : 16 бит
Метод сжатия : С потерями
Размер потока : 154 Мбайт (100%)
Общее
Полное имя : C:\Торренты\Мультфильмы\COBM-5449\VIDEO_TS\COBM-5449.index\COBM-5449_T01.d2v
Размер файла : 691 Кбайт
Общее
Полное имя : C:\Торренты\Мультфильмы\COBM-5449\VIDEO_TS\VIDEO_TS.BUP
Формат : DVD Video
Профиль формата : Menu
Размер файла : 12,0 Кбайт
Режим общего битрейта : Переменный
Видео
Идентификатор : 224 (0xE0)
Формат : MPEG Video
Версия формата : Version 2
Вид битрейта : Переменный
Ширина : 720 пикселей
Высота : 480 пикселей
Соотношение сторон : 4:3
Частота кадров : 29,970 кадров/сек
Стандарт вещания : NTSC
Метод сжатия : С потерями
Аудио
Формат : AC-3
Формат/Информация : Audio Coding 3
Каналы : 2 канала
Частота : 48,0 КГц
Метод сжатия : С потерями
Текст
Формат : RLE
Формат/Информация : Run-length encoding
Битовая глубина : 2 бит
Общее
Полное имя : C:\Торренты\Мультфильмы\COBM-5449\VIDEO_TS\VIDEO_TS.IFO
Формат : DVD Video
Профиль формата : Menu
Размер файла : 12,0 Кбайт
Режим общего битрейта : Переменный
Видео
Идентификатор : 224 (0xE0)
Формат : MPEG Video
Версия формата : Version 2
Вид битрейта : Переменный
Ширина : 720 пикселей
Высота : 480 пикселей
Соотношение сторон : 4:3
Частота кадров : 29,970 кадров/сек
Стандарт вещания : NTSC
Метод сжатия : С потерями
Аудио
Формат : AC-3
Формат/Информация : Audio Coding 3
Каналы : 2 канала
Частота : 48,0 КГц
Метод сжатия : С потерями
Текст
Формат : RLE
Формат/Информация : Run-length encoding
Битовая глубина : 2 бит
Общее
Полное имя : C:\Торренты\Мультфильмы\COBM-5449\VIDEO_TS\VIDEO_TS.VOB
Формат : MPEG-PS
Размер файла : 4,89 Мбайт
Продолжительность : 6 с. 840 мс.
Режим общего битрейта : Переменный
Общий поток : 5995 Кбит/сек
Видео
Идентификатор : 224 (0xE0)
Формат : MPEG Video
Версия формата : Version 2
Профиль формата : Simple@Main
Параметр BVOP формата : Нет
Параметр матрицы формата : Выборочная
Параметр GOP формата : Variable
Продолжительность : 6 с. 840 мс.
Вид битрейта : Переменный
Битрейт : 5620 Кбит/сек
Максимальный битрейт : 8000 Кбит/сек
Ширина : 720 пикселей
Высота : 480 пикселей
Соотношение сторон : 4:3
Частота кадров : 29,970 кадров/сек
Стандарт вещания : NTSC
Цветовое пространство : YUV
Субдискретизация насыщенности : 4:2:0
Битовая глубина : 8 бит
Тип развёртки : Чересстрочная
Порядок развёртки : Верхнее поле первое
Метод сжатия : С потерями
Бит/(Пиксели*Кадры) : 0.543
Временной код первого кадра : 00:59:01:00
Оригинал временного кода : Group of pictures header
Размер потока : 4,58 Мбайт (94%)
Аудио
Идентификатор : 189 (0xBD)-128 (0x80)
Формат : AC-3
Формат/Информация : Audio Coding 3
Расширение режима : CM (complete main)
Параметр Endianness формата : Big
Режим смешивания : DVD-Video
Продолжительность : 6 с. 816 мс.
Вид битрейта : Постоянный
Битрейт : 256 Кбит/сек
Каналы : 2 канала
Расположение каналов : Front: L R
Частота : 48,0 КГц
Битовая глубина : 16 бит
Метод сжатия : С потерями
Размер потока : 213 Кбайт (4%)

Скриншоты меню

Скриншоты

[www.cybertorrent.ru].t1729.torrent 
Торрент: Зарегистрирован [ 2018-02-16 08:44 ] · 9DE280D66A4A1E1FC94F2BFBE2855EEF694B2BB2

Скачать .torrent

Скачать

22 KB

Статус: проверено
Скачан: 0 раз
Размер: 4,16 GB
Профиль [ЛС]
Показать сообщения:    

Текущее время: 18-Дек 11:08

Часовой пояс: UTC ± 0



Вы не можете начинать темы
Вы не можете отвечать на сообщения
Вы не можете редактировать свои сообщения
Вы не можете удалять свои сообщения
Вы не можете голосовать в опросах
Вы не можете прикреплять файлы к сообщениям
Вы можете скачивать файлы
Torrents24.ru открытый BitTorrent Torrents24.pl открытый BitTorrent CyberTorrent.ru открытый BitTorrent BtList.ru рейтинг BitTorrent трекеров Яндекс.Метрика