Статистика раздачи
Размер:  6,49 GB   |    Зарегистрирован:  9 месяцев 1 день   |    Скачан:  0 раз

Полного источника не было: Никогда

 
   
 
 

DR_KTO ®

Пол:
Не указан
Стаж:
9 месяцев 2 дня
Сообщений:
105

Симпсоны / The Simpsons- Страна: США
Жанр: Мультсериал, комедия
Продолжительность: 00:22:00 (одной серии)
Год выпуска: 2007-2008
Перевод: Профессиональный (двухголосый закадровый - Ирина Савина и Борис Быстров)
Русские субтитры: нет
Режиссёр: Мэтт Гроенинг / Matt Groening, Дэвид Сильверман / David Silverman
Описание: Симпсоны - это мультсериал-пародия на американский уклад жизни. Семейство Симпсонов состоит из пяти членов: папаша Гомер, мать семейства Мардж, их дочери Лиза и Мэгги и несносный подросток Барт. Симпсоны с успехом демонстрируются в США и по всему миру уже 25 лет.-Доп. информация: За большую часть записей данного мультсерила все дружно благодарим Колю Чешского (2012).-Список серий:
01. He Loves to Fly and He D’ohs
02. The Homer of Seville
03. Midnight Towboy
04. I Don’t Wanna Know Why the Caged Bird Sings
05. Treehouse of Horror XVIII
06. Little Orphan Millie
07. Husbands and Knives
08. Funeral For A Fiend
09. Eternal Moonshine of the Simpson Mind
10. E Pluribus Wiggum
13. The Debarted
14. Dial "N" for Nerder
15. Smoke on the Daughter
19. Mona Leaves-a
20. All About Lisa-Семпл: нажми сюда
Качество: DVB
Формат: MPEG-PS
Видео кодек: MPEG
Аудио кодек: MPEG Audio Layer 2
Видео: 768x576@720x576 (4:3), 25 fps, MPEG Video, 3 044 Kbps, 0.294 bit/pixel
Аудио: 48 kHz, MPEG Layer 2, 2 ch, 192 kbps
Субтитры: нет

Подробные технические данные

Код:General
Complete name : ...\The.Simpsons.S19.2007-2008.DVB.-blackaskew\The.Simpsons.S19E04.I.Don’t.Wanna.Know.Why.the.Caged.Bird.Sings.mpg
Format : MPEG-PS
File size : 478 MiB
Duration : 20mn 14s
Overall bit rate mode : Variable
Overall bit rate : 3 302 Kbps
Writing library : (c) 1998-2011 Womble Multimedia, Inc. / MPEG Video Wizard DVD 5.0.1.100 (03/2011) / May 27 2011
Video
ID : 224 (0xE0)
Format : MPEG Video
Format version : Version 2
Format profile : Main@Main
Format settings, BVOP : Yes
Format settings, Matrix : Custom
Duration : 20mn 14s
Bit rate mode : Variable
Bit rate : 3 044 Kbps
Maximum bit rate : 15.0 Mbps
Width : 720 pixels
Height : 576 pixels
Display aspect ratio : 4:3
Frame rate : 25.000 fps
Standard : PAL
Color space : YUV
Chroma subsampling : 4:2:0
Bit depth : 8 bits
Scan type : Interlaced
Scan order : Top Field First
Compression mode : Lossy
Bits/(Pixel*Frame) : 0.294
Stream size : 441 MiB (92%)
Writing library : (c) 1998-2011 Womble Multimedia, Inc. / MPEG Video Wizard DVD 5.0.1.100 (03/2011) / May 27 2011
Audio
ID : 192 (0xC0)
Format : MPEG Audio
Format version : Version 1
Format profile : Layer 2
Duration : 20mn 14s
Bit rate mode : Constant
Bit rate : 192 Kbps
Channel(s) : 2 channels
Sampling rate : 48.0 KHz
Compression mode : Lossy
Delay relative to video : -40ms
Stream size : 27.8 MiB (6%)

Скриншоты

История обновлений и изменений

01. 25.11.2013 - добавлены такие серии как
  • 19x07. Husbands and Knives
  • 19x02. The Homer of Seville
    02. 02.12.2013 - добавлены такие серии как
  • 19x06. Little Orphan Millie
  • 19x08. Funeral For A Fiend
  • 19x10. E Pluribus Wiggum
  • 19x15. Smoke on the Daughter
    03. 11.02.2014 - добавлены такие серии как
  • 19x19. Mona Leaves-a
  • 19x20. All About Lisa
    04. 02.05.2014 - добавлены такие серии как
  • 19x05. Treehouse of Horror XVIII
  • 19x14. Dial "N" for Nerder
    05. 03.06.2014 - добавлены такие серии как
  • 19x09. Eternal Moonshine of the Simpson Mind
  • 19x13. The Debarted
    *06. 17.05.2015 - добавлены такие серии как
  • 19x01. He Loves to Fly and He D’ohs
  • 19x03. Midnight Towboy
  • -Ссылка на предыдущие и альтернативные раздачи
    [www.cybertorrent.ru].t1727.torrent 
    Торрент: Зарегистрирован [ 2018-02-16 08:44 ] · 00D211399776C092F23869BEF6B85D3CB2DD999B

    Скачать .torrent

    Скачать

    35 KB

    Статус: проверено
    Скачан: 0 раз
    Размер: 6,49 GB
    Профиль [ЛС]
    Показать сообщения:    

    Текущее время: 18-Ноя 00:03

    Часовой пояс: UTC ± 0



    Вы не можете начинать темы
    Вы не можете отвечать на сообщения
    Вы не можете редактировать свои сообщения
    Вы не можете удалять свои сообщения
    Вы не можете голосовать в опросах
    Вы не можете прикреплять файлы к сообщениям
    Вы можете скачивать файлы
    Torrents24.ru открытый BitTorrent Torrents24.pl открытый BitTorrent CyberTorrent.ru открытый BitTorrent BtList.ru рейтинг BitTorrent трекеров Яндекс.Метрика