Статистика раздачи
Размер:  4,37 GB   |    Зарегистрирован:  4 месяца 4 дня   |    Скачан:  0 раз

Полного источника не было: Никогда

 
   
 
 

Cyber ®

Пол:
Не указан
Стаж:
4 месяца 5 дней
Сообщений:
232

Алиса в Стране Чудес, Алиса в Зазеркалье / RUSCICO
Страна: СССР
Студия: Киевнаучфильм
Жанр: Мультфильм, Короткометражка, Фэнтези, Семейный
Год выпуска: 1981
Продолжительность: 00:30:16+00:38:40Перевод: Не требуетсяПроизводитель: RUSCICO
Субтитры: Английские, Французские, Испанские, Итальянские, Немецкие, Русские
Оригинальная аудиодорожка: Русский
Режиссер: Ефрем Пружанский
В ролях: Марина Неёлова (Алиса)
Вячеслав Невинный (Белый Кролик)
Рина Зелёная (Герцогиня)
Татьяна Васильева (Червонная Королева)
Александр Ширвиндт (Чеширский Кот)
Евгений Паперный (Червонный Валет)
Георгий Кишко (Мартовский Заяц)
Александр Бурмистров (Болванщик)
текст читает: Ростислав Плятт
Описание: Мультипликационный фильм по мотивам сказки Льюиса Кэрролла «Алиса в Стране Чудес».Алиса в Стране Чудес

Алиса в Зазеркалье Бонусы: Льюис Кэрролл. Смотрите на DVD.Меню: Русский, Английский, Французский, Анимированное, ОзвученноеСэмпл: http://multi-up.com/924021Тип релиза: DVD5
Контейнер: DVD-Video
Формат субтитров : prerendered (DVD/IDX+SUB)
Видео: NTSC 4:3 (720x480) VBR, 6000 Кбит/сек, 29,970 кадров/сек
Аудио 1 : Русский: AC3, 6 ch, 48,0 КГц, 448 KbpsАудио 2 : Английский: AC3, 6 ch, 48,0 КГц, 448 KbpsАудио 3 : Французский: AC3, 6 ch, 48,0 КГц, 448 KbpsАудио 4 : Русский: AC3, 1 ch, 48,0 КГц, 128 Kbps (оригинал)

Знаете ли вы, что...

Мультфильм снят по мотивам сказки Льюиса Кэролла «Алиса в стране чудес» (Alice’s Adventures in Wonderland, 1865)

Dvd Info

Title: Alice in Wonderland_ Alisa v strane chudes_DVDх5
Size: 4.37 Gb ( 4 583 056,00 KBytes ) - DVD-5
Enabled regions: 1, 2, 3, 4, 5, 6, 7, 8
VTS_01 :
Play Length: 00:00:40
Video: NTSC 4:3 (720x480) VBR
Subtitles:
Not specified
VTS_02 :
Play Length: 00:00:21
Video: NTSC 4:3 (720x480) VBR
Audio:
Not specified, AC3, 3/2 (L,C,R,SL,SR)+LFE ch, 448 kbps, Delay 0 mSec
VTS_03 :
Play Length: 00:00:02+00:30:16+00:38:40
Video: NTSC 4:3 (720x480) VBR
Audio:
Russian, AC3, 3/2 (L,C,R,SL,SR)+LFE ch, 448 kbps, Delay 319 mSec
English, AC3, 3/2 (L,C,R,SL,SR)+LFE ch, 448 kbps, Delay 319 mSec
Francais, AC3, 3/2 (L,C,R,SL,SR)+LFE ch, 448 kbps, Delay 319 mSec
Russian, AC3, 1/0 (C) ch, 128 kbps, Delay 319 mSec
Subtitles:
English
Francais
Espanol
Italiano
Deutsch
Russian
VTS_04 :
Play Length: 00:01:12
Video: NTSC 4:3 (720x480) VBR
Audio:
Russian, AC3, 2/0 (L,R) ch, 256 kbps, Delay 0 mSec
Subtitles:
English
Francais
Espanol
Italiano
Deutsch
Russian
VTS_05 :
Play Length: 00:00:39
Video: NTSC 4:3 (720x480) VBR
Audio:
Russian, AC3, 2/0 (L,R) ch, 256 kbps, Delay 0 mSec
VTS_06 :
Play Length: 00:01:23
Video: NTSC 4:3 (720x480) VBR
Audio:
Russian, AC3, 2/0 (L,R) ch, 256 kbps, Delay 0 mSec

MediaInfo

Общее
Полное имя : K:\Alice in Wonderland_ Alisa v strane chudes_DVDх5\VIDEO_TS\VTS_03_2.VOB
Формат : MPEG-PS
Размер файла : 1024 Мбайт
Продолжительность : 18 м.
Общий поток : 7659 Кбит/сек
Видео
Идентификатор : 224 (0xE0)
Формат : MPEG Video
Версия формата : Version 2
Профиль формата : Main@Main
Параметр BVOP формата : Да
Параметр матрицы формата : Выборочная
Параметр GOP формата : M=3, N=15
Продолжительность : 18 м.
Битрейт : 6000 Кбит/сек
Ширина : 720 пикселей
Высота : 480 пикселей
Соотношение сторон : 4:3
Частота кадров : 29,970 кадров/сек
Стандарт вещания : NTSC
Цветовое пространство : YUV
Субдискретизация насыщенности : 4:2:0
Битовая глубина : 8 бит
Тип развёртки : Чересстрочная
Порядок развёртки : Верхнее поле первое
Метод сжатия : С потерями
Бит/(Пиксели*Кадры) : 0.579
Временной код первого кадра : 00:18:40:06
Оригинал временного кода : Group of pictures header
Размер потока : 807 Мбайт (79%)
Аудио #1
Идентификатор : 189 (0xBD)-128 (0x80)
Формат : AC-3
Формат/Информация : Audio Coding 3
Расширение режима : CM (complete main)
Параметр Endianness формата : Big
Режим смешивания : DVD-Video
Продолжительность : 18 м.
Вид битрейта : Постоянный
Битрейт : 448 Кбит/сек
Каналы : 6 каналов
Расположение каналов : Front: L C R, Side: L R, LFE
Частота : 48,0 КГц
Битовая глубина : 16 бит
Метод сжатия : С потерями
Задержка видео : -628 мс.
Размер потока : 59,9 Мбайт (6%)
Аудио #2
Идентификатор : 189 (0xBD)-129 (0x81)
Формат : AC-3
Формат/Информация : Audio Coding 3
Расширение режима : CM (complete main)
Параметр Endianness формата : Big
Режим смешивания : DVD-Video
Продолжительность : 18 м.
Вид битрейта : Постоянный
Битрейт : 448 Кбит/сек
Каналы : 6 каналов
Расположение каналов : Front: L C R, Side: L R, LFE
Частота : 48,0 КГц
Битовая глубина : 16 бит
Метод сжатия : С потерями
Задержка видео : -628 мс.
Размер потока : 59,9 Мбайт (6%)
Аудио #3
Идентификатор : 189 (0xBD)-130 (0x82)
Формат : AC-3
Формат/Информация : Audio Coding 3
Расширение режима : CM (complete main)
Параметр Endianness формата : Big
Режим смешивания : DVD-Video
Продолжительность : 18 м.
Вид битрейта : Постоянный
Битрейт : 448 Кбит/сек
Каналы : 6 каналов
Расположение каналов : Front: L C R, Side: L R, LFE
Частота : 48,0 КГц
Битовая глубина : 16 бит
Метод сжатия : С потерями
Задержка видео : -628 мс.
Размер потока : 59,9 Мбайт (6%)
Аудио #4
Идентификатор : 189 (0xBD)-131 (0x83)
Формат : AC-3
Формат/Информация : Audio Coding 3
Расширение режима : CM (complete main)
Параметр Endianness формата : Big
Режим смешивания : DVD-Video
Продолжительность : 18 м.
Вид битрейта : Постоянный
Битрейт : 128 Кбит/сек
Каналы : 1 канал
Расположение каналов : Front: C
Частота : 48,0 КГц
Битовая глубина : 16 бит
Метод сжатия : С потерями
Задержка видео : -468 мс.
Размер потока : 17,1 Мбайт (2%)
Текст #1
Идентификатор : 189 (0xBD)-32 (0x20)
Формат : RLE
Формат/Информация : Run-length encoding
Режим смешивания : DVD-Video
Продолжительность : 18 м.
Задержка видео : 601 мс.
Текст #2
Идентификатор : 189 (0xBD)-33 (0x21)
Формат : RLE
Формат/Информация : Run-length encoding
Режим смешивания : DVD-Video
Продолжительность : 18 м.
Задержка видео : 601 мс.
Текст #3
Идентификатор : 189 (0xBD)-34 (0x22)
Формат : RLE
Формат/Информация : Run-length encoding
Режим смешивания : DVD-Video
Продолжительность : 18 м.
Задержка видео : 601 мс.
Текст #4
Идентификатор : 189 (0xBD)-35 (0x23)
Формат : RLE
Формат/Информация : Run-length encoding
Режим смешивания : DVD-Video
Продолжительность : 18 м.
Задержка видео : 601 мс.
Текст #5
Идентификатор : 189 (0xBD)-36 (0x24)
Формат : RLE
Формат/Информация : Run-length encoding
Режим смешивания : DVD-Video
Продолжительность : 18 м.
Задержка видео : 601 мс.
Текст #6
Идентификатор : 189 (0xBD)-37 (0x25)
Формат : RLE
Формат/Информация : Run-length encoding
Режим смешивания : DVD-Video
Продолжительность : 18 м.
Задержка видео : 601 мс.

Скриншоты меню

Скриншоты доп. материалов

Уважаемые пользователи!Найдите пару минут поблагодарить релизера и высказаться в топике раздачи.Ваше мнение - бальзам для раздающего и пища для ума остальным пользователям.Мои раздачи
[www.cybertorrent.ru].t1726.torrent 
Торрент: Зарегистрирован [ 2018-02-16 08:44 ] · E485D2EB03F20C0E3327C898B7A177710CB978EA

Скачать .torrent

Скачать

24 KB

Статус: проверено
Скачан: 0 раз
Размер: 4,37 GB
Профиль [ЛС]
Показать сообщения:    

Текущее время: 21-Июн 07:59

Часовой пояс: UTC ± 0



Вы не можете начинать темы
Вы не можете отвечать на сообщения
Вы не можете редактировать свои сообщения
Вы не можете удалять свои сообщения
Вы не можете голосовать в опросах
Вы не можете прикреплять файлы к сообщениям
Вы можете скачивать файлы