Статистика раздачи
Размер:  11,55 GB   |    Зарегистрирован:  5 месяцев 26 дней   |    Скачан:  0 раз

Полного источника не было: Никогда

 
   
 
 

Gomer ®

Пол:
Не указан
Стаж:
5 месяцев 27 дней
Сообщений:
40

Гриффины / Family Guy -Год выпуска: 2011
Страна: США
Студия: Twentieth Century Fox Film Corporation
Жанр: Мультсериал, комедия, пародия, мюзикл
Продолжительность: ~22 минуты (серия)
Перевод: Профессиональный (многоголосый закадровый) студия "ZoneVision" по заказу
-Режиссёр: Сет МакФарлейн / Seth MacFarlane-Роли озвучивали:
  • Оригинал: Сет МакФарлейн, Алекс Борштейн, Сет Грин, Мила Кунис, Майк Генри и другие.
  • 2x2: Олег Форостенко, Илья Хвостиков, Людмила Ильина.
-Описание: "Гриффины" (Family Guy) - анимационное ТВ-Шоу, созданное Сетом МакФерлайном (Seth MacFarlane) для телеканала FOX. Как нетрудно догадаться, главными героями шоу является семейка Гриффинов: тупой, но полный сумашедших идей, составляющих львиную долю шуток сериала, отец семейства Питер; его любящя и терпеливая жена Лойс, всеми силами пытающаяся превратить Гриффинов в нормальную семью; их интеллектуально развитый не по годам, вынашивающий идею мирового господства младший сын Стьюи; дочь-ботаник, обречённая из-за этого на одиночество и непонимание как в школе так и дома, Мэг; и 13-ти летний отсталый в развитии лет на 10, сын Крис. Также полноценным членом семьи является пёс Брайн - склонный к меланхолии эстет, спокойно наблюдающий с бокалом вина в лапе над приключениями Питера и остальных членов семьи (и это при всём притом, что остальные собаки в сериале не являются очеловеченными).-РЕЛИЗ ОТ: V.SERIJ2013
-Спасибо ALEKS KV, GonFilm, darba, #Antisnl# за запись звука, in_finiti за субтитры к 1-18 сериям, и SerGoLeOne (1-8), v.serij2013 (остальные) за сведение.-Качество: WEB-DL 720p
Формат: MKV
Видео кодек: H.264
Аудио кодек: AC3
Видео: H.264, 1280x720 (16:9), 23.976 fps, ~2576 kbps
Аудио:
  • русская |2x2|: AC3, 48 kHz, 2ch, 192 kbps
  • английская |Оригинал|: AC3, 48 kHz, 6ch, 384 kbps
Субтитры: русские |Notabenoid| (1-18 серии), английские (1-18 серии)-Сэмпл\ Все раздачи мультсериала- -

Список серий

10 сезон (2011 год):
01. Lottery Fever
02. Seahorse Seashell Party
03. Screams of Silence The Story of Brenda Q
04. Stewie Goes for a Drive
05. Back to Pilot
06. Thanksgiving
07. Amish Guy
08. Cool Hand Peter
09. Grumpy Old Man
10. Meg and Quagmire
11. The Blind Side
12. Livin'on a Prayer
13. Tom Tucker: The Man and His Dream
14. Be Careful What You Fish
15. Burning Down the Bayit
16. Killer Queen
17. Forget-Me-Not
18. You Can't Do That on Television, Peter
20. Leggo My Meg-O
21. Tea Peter
22. Family Guy Viewer Mail #2
23. Internal Affairs

Media Info

Код:General
UniqueID : 199770542017158986709500584118676939329 (0x964A6829CB5BEC69A87AE870E024E241)
Complete name : F:\Мои документы\Вадим\Моё видео (Вадим)\Family Guy Season 10 (WEB-DL 720p)\01. Lottery Fever.mkv
Format : Matroska
File size : 497 MiB
Duration : 21mn 36s
Overall bit rate : 3 216 Kbps
Encoded date : UTC 2013-11-13 11:09:33
Writing application : mkvmerge v5.8.0 ('No Sleep / Pillow') built on Sep 2 2012 15:37:04
Writing library : libebml v1.2.3 + libmatroska v1.3.0
Video
ID : 1
Format : AVC
Format/Info : Advanced Video Codec
Format profile : High@L3.1
Format settings, CABAC : No
Format settings, ReFrames : 2 frames
Muxing mode : Header stripping
Codec ID : V_MPEG4/ISO/AVC
Duration : 21mn 36s
Bit rate mode : Variable
Bit rate : 2 576 Kbps
Width : 1 280 pixels
Height : 720 pixels
Display aspect ratio : 16:9
Frame rate : 23.976 fps
Color space : YUV
Chroma subsampling : 4:2:0
Bit depth : 8 bits
Scan type : Progressive
Bits/(Pixel*Frame) : 0.117
Stream size : 398 MiB (80%)
Language : English
Color primaries : BT.709-5, BT.1361, IEC 61966-2-4, SMPTE RP177
Transfer characteristics : BT.709-5, BT.1361
Matrix coefficients : BT.709-5, BT.1361, IEC 61966-2-4 709, SMPTE RP177
Audio #1
ID : 2
Format : AC-3
Format/Info : Audio Coding 3
Mode extension : CM (complete main)
Muxing mode : Header stripping
Codec ID : A_AC3
Duration : 21mn 36s
Bit rate mode : Constant
Bit rate : 192 Kbps
Channel(s) : 2 channels
Channel positions : Front: L R
Sampling rate : 48.0 KHz
Bit depth : 16 bits
Compression mode : Lossy
Stream size : 29.7 MiB (6%)
Title : 2x2
Language : Russian
Audio #2
ID : 3
Format : AC-3
Format/Info : Audio Coding 3
Mode extension : CM (complete main)
Muxing mode : Header stripping
Codec ID : A_AC3
Duration : 21mn 36s
Bit rate mode : Constant
Bit rate : 384 Kbps
Channel(s) : 6 channels
Channel positions : Front: L C R, Side: L R, LFE
Sampling rate : 48.0 KHz
Bit depth : 16 bits
Compression mode : Lossy
Stream size : 59.3 MiB (12%)
Title : Original
Language : English
Text #1
ID : 4
Format : UTF-8
Codec ID : S_TEXT/UTF8
Codec ID/Info : UTF-8 Plain Text
Title : Notabenoid
Language : Russian
Text #2
ID : 5
Format : UTF-8
Codec ID : S_TEXT/UTF8
Codec ID/Info : UTF-8 Plain Text
Title : Original
Language : English
-
[www.cybertorrent.ru].t1724.torrent 
Торрент: Зарегистрирован [ 2018-02-16 08:44 ] · F9FC252390681945A696A39808F0F50BD2CCCCF3

Скачать .torrent

Скачать

31 KB

Статус: проверено
Скачан: 0 раз
Размер: 11,55 GB
Профиль [ЛС]
Показать сообщения:    

Текущее время: 15-Авг 08:34

Часовой пояс: UTC ± 0



Вы не можете начинать темы
Вы не можете отвечать на сообщения
Вы не можете редактировать свои сообщения
Вы не можете удалять свои сообщения
Вы не можете голосовать в опросах
Вы не можете прикреплять файлы к сообщениям
Вы можете скачивать файлы
Torrents24.ru открытый BitTorrent Torrents24.pl открытый BitTorrent CyberTorrent.ru открытый BitTorrent BtList.ru рейтинг BitTorrent трекеров Яндекс.Метрика