BitTorrent клиенты



Преступление в «Формуле-1» / Delitto in Formula Uno (Бруно Корбуччи / Bruno Corbucci) [1984, Италия, комедийный детектив, DVDRip] VO (ССК+) + Original Ita

Ответить на тему
 
Автор Сообщение

Keeper ®

Пол: Не указан

Стаж: 1 год

Сообщений: 499

Создавать темы 05-Фев-2018 18:31

[Цитировать]

Преступление в «Формуле-1» / Delitto in Formula Uno
Страна: Италия
Жанр: комедийный детектив
Год выпуска: 1984
Продолжительность: 01:37:26
Перевод: Одноголосый закадровый перевод ССК+
Субтитры: нет
Оригинальная аудиодорожка: итальянский
Режиссер: Бруно Корбуччи / Bruno Corbucci
В ролях: Томас Милиан, Пино Колицци, Дагмар Лассандер, Олимпия Ди Нардо, Пако Фабрини, Личиния Лентини, Изабель Руссинова, Энцо Гаринеи, Массимо Ванни, Мария Грация Буччелла
Описание: Эксцентричный в одежде и манерах полицейский инспектор Нико Джиральди начинает расследование странной гибели гонщика Формулы-1 прямо на трассе в Монце. Инспектор, кроме сварливого и неблагодарного начальства, имеет и остальные прелести жизни - жену, сына, шурина и далее по списку, которые делают его существование настоящей "полосой препятствий".
В главной роли этого то ли весёлого детектива, то ли криминальной комедии - красавец Томас Милиан в самом расцвете своих мужских сил.
Настоятельно рекомендуется к просмотру! Не пожалеете!
Доп. информация:
IMDB
http://www.imdb.com/title/tt0085420/
Кинопоиск
http://www.kinopoisk.ru/film/197723/
Сэмпл: http://multi-up.com/986606
Качество видео: DVDRip
Формат видео: AVI
Видео: XviD, 576х304, 1.895, 25.000 fps, 1 609 Kbps
Аудио: MP3, 44.1 KHz, 192 Kbps, 2 channels, русский
Аудио 2: MP3, 44.1 KHz, 128 Kbps, 2 channels, итальянский

MediaInfo

General
Complete name : F:\РАЗДАЧИ\Delitto in Formula Uno\Убийство на трассе Формулы-1\Delitto in Formula Uno.avi
Format : AVI
Format/Info : Audio Video Interleave
File size : 1.32 GiB
Duration : 1h 37mn
Overall bit rate : 1 944 Kbps
Writing application : VirtualDubMod 1.5.10.2 (build 2540/release)
Writing library : VirtualDubMod build 2540/release
Video
ID : 0
Format : MPEG-4 Visual
Format profile : Advanced Simple@L5
Format settings, BVOP : 2
Format settings, QPel : No
Format settings, GMC : No warppoints
Format settings, Matrix : Default (MPEG)
Codec ID : XVID
Codec ID/Hint : XviD
Duration : 1h 37mn
Bit rate : 1 609 Kbps
Width : 576 pixels
Height : 304 pixels
Display aspect ratio : 1.895
Frame rate : 25.000 fps
Color space : YUV
Chroma subsampling : 4:2:0
Bit depth : 8 bits
Scan type : Progressive
Compression mode : Lossy
Bits/(Pixel*Frame) : 0.368
Stream size : 1.10 GiB (83%)
Writing library : XviD 1.2.1 (UTC 2008-12-04)
Audio #1
ID : 1
Format : MPEG Audio
Format version : Version 1
Format profile : Layer 3
Mode : Joint stereo
Codec ID : 55
Codec ID/Hint : MP3
Duration : 1h 37mn
Bit rate mode : Constant
Bit rate : 192 Kbps
Channel(s) : 2 channels
Sampling rate : 44.1 KHz
Compression mode : Lossy
Stream size : 134 MiB (10%)
Alignment : Split accross interleaves
Interleave, duration : 40 ms (1.00 video frame)
Interleave, preload duration : 500 ms
Audio #2
ID : 2
Format : MPEG Audio
Format version : Version 1
Format profile : Layer 3
Codec ID : 55
Codec ID/Hint : MP3
Duration : 1h 37mn
Bit rate mode : Constant
Bit rate : 128 Kbps
Channel(s) : 2 channels
Sampling rate : 44.1 KHz
Compression mode : Lossy
Stream size : 89.2 MiB (7%)
Alignment : Split accross interleaves
Interleave, duration : 40 ms (1.00 video frame)
Interleave, preload duration : 500 ms
Writing library : LAME3.99r
Encoding settings : -m s -V 4 -q 2 -lowpass 17 -b 128

Скриншот c названием фильма

Скриншоты

Мои раздачи на рутрекере http://rutracker.org/forum/tracker.php?rid=10591342
[Профиль] [ЛС]
Показать сообщения:    
Ответить на тему

Текущее время: 21-Фев 23:57

Часовой пояс: UTC + 3



Вы не можете начинать темы
Вы не можете отвечать на сообщения
Вы не можете редактировать свои сообщения
Вы не можете удалять свои сообщения
Вы не можете голосовать в опросах
Вы не можете прикреплять файлы к сообщениям
Вы можете скачивать файлы