BitTorrent клиенты



История монахини / История уединенной монахини / Story of a cloistered nun / Storia di una monaca di clausura (Доменико Паолелла / Domenico Paolella) [1973, Италия, Франция, ФРГ, драма, нансплотейшн, DVDRip] VO (ССК+) + Original Eng

Ответить на тему
 
Автор Сообщение

Keeper ®

Пол: Не указан

Стаж: 1 год

Сообщений: 499

Создавать темы 05-Фев-2018 18:31

[Цитировать]

История монахини / Story of a cloistered nun / Storia di una monaca di clausura
Страна: Италия, Франция, ФРГ
Жанр: драма, нансплотейшн
Год выпуска: 1973
Продолжительность: 01:36:58
Перевод: Одноголосый закадровый Перевод ССК+
Субтитры: нет
Оригинальная аудиодорожка: английский
Режиссер: Доменико Паолелла / Domenico Paolella
В ролях: Катрин Спаак, Сьюзи Кендалл, Элеонора Джорджи, Мартина Брошар, Анн Одесса, Антонио Фальси, Умберто Орсини, Тино Карраро, Конрад Георг, Изабель Маршалл
Описание:
Юная Кармела, влюбленная в столь же юного и бедного Джулиано, отказывается выйти замуж за человека, с которым обручена с младенчества. Разъяренный отец, оскорбленный отказом дочери выполнить его волю, отправляет ее в монастырь. Здесь новая послушница проходит через все круги ада (включая 30-дневное заключение в каменном мешке, умерщвление плоти веригами и власяницей, побои за малейшее нарушение), но не сдается… А через какое-то время обнаруживает, что даже в самом строгом монастыре люди все равно остаются людьми со своими чувствами, желаниями и надеждами. Живущая на особом положении сестра Елизавета, чья семья является крупнейшим донатором монастыря, показывает юной девушке, как можно обойти многие запреты; за внешним аскетизмом мрачного монастыря находится место даже сибаритству и бурным развлечениям, суровая мать-настоятельница прячет под маской строгости нежную и ранимую душу… Но наладившаяся было жизнь рушится, стоит в ней появиться вернувшемуся с войны Джулиано, все еще влюбленному в Кармелу. Вскипают страсти, любовь и ревность образуют гремучую смесь и дело стремительно летит к развязке, вполне традиционной для подобных историй.
Хотя сама история довольно не оригинальна и даже нудновата, этот фильм имеет свое очарование благодаря занятым в нем актерам и актрисам. Сьюзи Кендалл лепит действительно «живую» роль настоятельницы монастыря, а не механического монстра-истязателя. Столь же великолепна Катрин Спаак в роли зловредной монахини-распутницы. Элеонора Джорджи играет молодую послушницу, сосланную отцом и матерью за отказ вступить в договорной брак; в более ранних фильмах "монастырского" жанра эту роль уже играли Орнелла Мути и Дженни Тамбури, но Джорджи более чем преуспела здесь в роли Кармелы. В фильме присутствует некоторое количество обнаженки, в основном, безупречных видов юной Джорджи и других служительниц культа, но при этом нет разнузданного разврата, как правило, ожидаемого фанатами "нансплотейшн". Есть одна сцена, где связанная полуголая Джорджи подвергается наказанию бичеванием, а также сцена, где Спаак заставляют ползти по полу, облизывая его языком, чтобы искупить грех непочитания матери-настоятельницы и наказать таким образом ее провинившийся язык.
Смотреть ВСЕМ!
Доп. информация:
IMDB
http://www.imdb.com/title/tt0070738/
Кинопоиск
http://www.kinopoisk.ru/film/92081/vk/1/
Сэмпл: http://multi-up.com/977759
Качество видео: DVDRip
Формат видео: AVI
Видео: XVID, 720х400, 16:9, 23.976 fps, 1 417 Kbps
Аудио: MP3, 48.0 KHz, 192 Kbps, 2 channels, русский
Аудио 2: AC-3, 48.0 KHz, 192 Kbps, 2 channels, английский

MediaInfo

General
Complete name : F:\РАЗДАЧИ\Story.of.a.cloistered.nun.1973\История монахини 1973 Паолелла\История монахини 1973.avi
Format : AVI
Format/Info : Audio Video Interleave
File size : 1.23 GiB
Duration : 1h 36mn
Overall bit rate : 1 815 Kbps
Writing application : VirtualDubMod 1.5.10.2 (build 2540/release)
Writing library : VirtualDubMod build 2540/release
Video
ID : 0
Format : MPEG-4 Visual
Format profile : Advanced Simple@L5
Format settings, BVOP : 1
Format settings, QPel : No
Format settings, GMC : No warppoints
Format settings, Matrix : Custom
Codec ID : XVID
Codec ID/Hint : XviD
Duration : 1h 36mn
Bit rate : 1 417 Kbps
Width : 720 pixels
Height : 400 pixels
Display aspect ratio : 16:9
Frame rate : 23.976 fps
Color space : YUV
Chroma subsampling : 4:2:0
Bit depth : 8 bits
Scan type : Progressive
Compression mode : Lossy
Bits/(Pixel*Frame) : 0.205
Stream size : 983 MiB (78%)
Writing library : XviD 1.2.0.dev47 (UTC 2006-11-01)
Audio #1
ID : 1
Format : MPEG Audio
Format version : Version 1
Format profile : Layer 3
Mode : Joint stereo
Codec ID : 55
Codec ID/Hint : MP3
Duration : 1h 36mn
Bit rate mode : Constant
Bit rate : 192 Kbps
Channel(s) : 2 channels
Sampling rate : 48.0 KHz
Compression mode : Lossy
Stream size : 133 MiB (11%)
Alignment : Aligned on interleaves
Interleave, duration : 42 ms (1.00 video frame)
Interleave, preload duration : 504 ms
Audio #2
ID : 2
Format : AC-3
Format/Info : Audio Coding 3
Mode extension : CM (complete main)
Format settings, Endianness : Big
Codec ID : 2000
Duration : 1h 36mn
Bit rate mode : Constant
Bit rate : 192 Kbps
Channel(s) : 2 channels
Channel positions : Front: L R
Sampling rate : 48.0 KHz
Bit depth : 16 bits
Compression mode : Lossy
Stream size : 133 MiB (11%)
Alignment : Split accross interleaves
Interleave, duration : 42 ms (1.00 video frame)
Interleave, preload duration : 500 ms

Скриншот c названием фильма

Мои раздачи на рутрекере http://rutracker.org/forum/tracker.php?rid=10591342
[Профиль] [ЛС]
Показать сообщения:    
Ответить на тему

Текущее время: 23-Фев 00:07

Часовой пояс: UTC + 3



Вы не можете начинать темы
Вы не можете отвечать на сообщения
Вы не можете редактировать свои сообщения
Вы не можете удалять свои сообщения
Вы не можете голосовать в опросах
Вы не можете прикреплять файлы к сообщениям
Вы можете скачивать файлы