BitTorrent клиенты



Проклятый дом / Дом убийств / La maison assassinee (Жорж Лотнер / Georges Lautner) [1988, Франция, драма, мистический триллер, DVDRip] VO (ССК+)

Ответить на тему
 
Автор Сообщение

Keeper ®

Пол: Не указан

Стаж: 1 год

Сообщений: 499

Создавать темы 05-Фев-2018 18:31

[Цитировать]

Проклятый дом / Дом убийств / La maison assassinee
Страна: Франция
Жанр: драма, мистический триллер
Год выпуска: 1988
Продолжительность: 01:46:34
Перевод: Одноголосый закадровый Перевод ССК+
Субтитры: нет
Оригинальная аудиодорожка: нет
Озвученный (по просьбам трудящихся) вариант
Автор перевода А.Вижье
Озвучание ССК+

Режиссер: Жорж Лотнер / Georges Lautner
В ролях: Патрик Брюэль, Анн Броше, Агнес Бланшо, Ингрид Хельд, Янн Коллетт, Жан-Пьер Сантье, Роже Жендли, Кристиан Барбье, Мартин Сарси, Мария Мерико
Описание: Серафин возвращается в свою родную деревню после первой мировой войны в 1920 году и узнает шокирующую правду. Оказывается, его семья была полностью вырезана в своем доме, когда ему самому было всего три недели от роду. Жители деревни отказываются рассказывать ему правду о прошлом. Серафин понимает, что он во что бы то ни стало должен узнать правду.
Доп. информация:
IMDB
http://www.imdb.com/title/tt0095567/
Кинопоиск
http://www.kinopoisk.ru/film/199577/

скрытый текст

Описание с сайта Кинопоиска (юзер Linnan)
Начало 20 века. Только-только отгремела Первая Мировая война, истерзавшая мир немыслимыми страданиями. Слишком многие не вернулись с фронта, оставшись в сырой земле. Их ждали дома и до последнего надеялись, что повестка о гибели была ошибкой; и лишь одного человека не хотели видеть в деревне, надеясь, что он действительно погиб и его имя на памятной плите навсегда останется лишь высеченными на камне буквами.
Но пожелания многих не оправдались. Судьба берегла молодого Серафина — но для чего? Только лишь для того, чтобы он, вернувшись, узнал, что вся его семья на самом деле была зверски убита, когда ему было лишь пара недель? И кто виновен в смерти близких? Всеми уважаемые в деревне люди, с детьми которых он сумел подружиться — или же кто-то другой?
Слишком много загадок, слишком много вопросов, на которые нет ответов. То, что изначально казалось понятным — три долговые расписки, найденные в доме предков, чётко указывали на троих мужчин, — и уже был вынесен им приговор, когда мистические силы стали расправляться с ними до вмешательства молодого человека. И не только с ними. Всем, с кем он сумел сблизиться, было уготовано наказание. Почтенный архитектор, бывший свидетелем той кровавой ночи, — лишь одна из случайных жертв этого возмездия, но чьего? Кто вершит возмездие? Кому это выгодно? И зачем?
А финал — совершенно непредсказуемый. То, что откроется Серафину, заставит по-новому посмотреть на всё происходящее — и лишь появятся ещё вопросы, что же действительно было, где правда, а где ложь? И потому ли молчали люди, что боялись за свою жизнь, или же им просто не хотелось вмешиваться, исходя из принципа "моя хата с краю"?
Очень неоднозначный и сложный фильм. В нём есть всё — детектив, история, мистика, триллер — и режиссёр справился на все сто со своей задачей показать историю, держащую в напряжении до самого финала. Но финал ли это? Или только начало не рассказанной истории? Будет ли так, что все жили долго и счастливо — или же их судьбы оказались сломаны навсегда этим проклятьем? Впереди всего двадцать лет спокойствия — и новая мясорубка — что стало с ними? На этот вопрос нет ответа — и не может быть, зритель сам должен додумать — и понять — что было — и что будет.
Актёры — и молодые, и старшее поколение — прекрасно справились со своими ролями. Особенно хочется отметить Янна Колетта в роли изуродованного на войне солдата — кажется, что именно такими и были те, кто возвращался с фронта инвалидами, контуженными, отравленными газами, лишившимися разума — ему лишь повезло чуть больше других — его отец мог позволить себе содержать его, не пришлось Патрису самому думать, как зарабатывать на жизнь или растягивать пособие от государства — если бы ему его ещё стали выплачивать.
И Патрик Брюэль, блистательно справляющийся с ролями любого плана и сложности — от лёгких комедий до берущих за душу драм. Его Серафин — почти никогда не улыбающийся, сторонящийся людей — является полной противоположностью характеру самого Патрика — но талант может и не такое — не даром говорят — талантливый человек талантлив во всём — не только петь, но и играть так, что хочется поверить в то, что всё, происходящее на экране — реальность.
Нечасто удаётся посмотреть фильмы такой глубины и даже если бы в Доме убийств не играл Брюэль, фильмам с которым поставить ниже девятки рука не поднимается — оценка не была бы ниже
10 из 10
Сэмпл: http://multi-up.com/974482
Качество видео: DVDRip
Формат видео: AVI
Видео: XviD, 720 х 384, 1.85:1, 25.000 fps, 1 765 Kbps
Аудио: MP3, 44.1 KHz, 192 Kbps, 2 channels, русский

MediaInfo

General
Complete name : F:\РАЗДАЧИ\La Maison Assassinee\Проклятый дом\Проклятый дом.avi
Format : AVI
Format/Info : Audio Video Interleave
File size : 1.46 GiB
Duration : 1h 46mn
Overall bit rate : 1 967 Kbps
Writing application : VirtualDubMod 1.5.10.2 (build 2540/release)
Writing library : VirtualDubMod build 2540/release
Video
ID : 0
Format : MPEG-4 Visual
Format profile : Advanced Simple@L5
Format settings, BVOP : 1
Format settings, QPel : No
Format settings, GMC : No warppoints
Format settings, Matrix : Custom
Codec ID : XVID
Codec ID/Hint : XviD
Duration : 1h 46mn
Bit rate : 1 765 Kbps
Width : 720 pixels
Height : 384 pixels
Display aspect ratio : 1.85:1
Frame rate : 25.000 fps
Color space : YUV
Chroma subsampling : 4:2:0
Bit depth : 8 bits
Scan type : Progressive
Compression mode : Lossy
Bits/(Pixel*Frame) : 0.255
Stream size : 1.31 GiB (90%)
Writing library : XviD 1.2.1 (UTC 2008-12-04)
Audio
ID : 1
Format : MPEG Audio
Format version : Version 1
Format profile : Layer 3
Mode : Joint stereo
Codec ID : 55
Codec ID/Hint : MP3
Duration : 1h 46mn
Bit rate mode : Constant
Bit rate : 192 Kbps
Channel(s) : 2 channels
Sampling rate : 44.1 KHz
Compression mode : Lossy
Stream size : 146 MiB (10%)
Alignment : Split accross interleaves
Interleave, duration : 40 ms (1.00 video frame)
Interleave, preload duration : 500 ms

Скриншот c названием фильма

Все мои раздачи на рутрекере http://rutracker.org/forum/tracker.php?rid=10591342
[Профиль] [ЛС]
Показать сообщения:    
Ответить на тему

Текущее время: 20-Фев 06:56

Часовой пояс: UTC + 3



Вы не можете начинать темы
Вы не можете отвечать на сообщения
Вы не можете редактировать свои сообщения
Вы не можете удалять свои сообщения
Вы не можете голосовать в опросах
Вы не можете прикреплять файлы к сообщениям
Вы можете скачивать файлы