Статистика раздачи
Размер:  1,21 GB   |    Зарегистрирован:  8 месяцев 4 дня   |    Скачан:  0 раз

Полного источника не было: Никогда

 
   
 
 

Gomer ®

Пол:
Не указан
Стаж:
8 месяцев 5 дней
Сообщений:
40

Гриффины / Family GuyСезон 12-WEB-DL: 1080p | 720p | 400p- Год выпуска: 2013
Страна: США
Жанр: Ситком, Чёрный юмор, Буффонада, Комедия, Пародия-Перевод: Любительский (двухголосый закадровый) - SifeR-Режиссёры: Питер Шин, Пит Мишелс, Джеймс Пурдум
Сценарий: Сет МакФарлейн, Дэвид Цуккерман, Алекс Борштейн
Продюссер: Сет МакФарлейн, Кара Вэллоу, Крис Шеридан
В ролях: Сет Макфарлейн, Алекс Борштейн, Сет Грин, Мила Кунис, Майк Генри-Описание:"Гриффины" (Family Guy) - анимационное ТВ-Шоу, созданное Сетом МакФерлайном (Seth MacFarlane) для телеканала FOX. Как нетрудно догадаться, главными героями шоу является семейка Гриффинов: тупой, но полный сумашедших идей, составляющих львиную долю шуток сериала, отец семейства Питер; его любящя и терпеливая жена Лойс, всеми силами пытающаяся превратить Гриффинов в нормальную семью; их интеллектуально развитый не по годам, вынашивающий идею мирового господства младший сын Стьюи; дочь-ботаник, обречённая из-за этого на одиночество и непонимание как в школе так и дома, Мэг; и 13-ти летний отсталый в развитии лет на 10, сын Крис. Также полноценным членом семьи является пёс Брайн - склонный к меланхолии эстет, спокойно наблюдающий с бокалом вина в лапе над приключениями Питера и остальных членов семьи (и это при всём притом, что остальные собаки в сериале не являются очеловеченными)-Продолжительность эпизода: ~ 20 мин.-Список серий:
  • Finders Keepers [21:34]
  • Vestigial Peter [21:35]
  • Quagmire's Quagmire [21:37]-
  • In Harmony's Way [31.10.2013]
  • A Fistful of Meg [10.11.2013]
  • 3 Acts of God [26.01.2014]-Качество: WEB-DL 720p
    Формат: MKV
    Видео кодек: AVC
    Аудио кодек: AC3
    Видео: 1280x718 (16:9), 23.976 fps, ~2000 kbps, ~0.084 bit/pixel
    Аудио Rus: 48 kHz, 6 ch, ~384 kbps |SifeR|
    Аудио Eng: 48 kHz, 6 ch, ~384 kbps |Original|
    Субтитры: Русские, английские-
    Все раздачи сериала / Сэмпл-Озвучка: "SifeR" + "С причудами"
    Перевод: Notabenoid (imad, T_chka, Redjedet, spacemob)
    Работа с видео/аудио/синхронизация субтитров: Кирилл Жирнов-

    Скриншоты

    Episode 1:
    At What Price

    -Episode 2:
    Out Of The Frying Pan

    -Episode 3:
    Quagmire's Quagmire

    MediaInfo

    ...\Family Guy Season 12 720p\Family Guy S12E01. Finders Keepers. SifeR.mkv
    General
    Unique ID : 178877611757021783589338506693258496757 (0x8692932BC02BF1A79420CDA84F37CAF5)
    Complete name : ...\Family Guy Season 12 720p\Family Guy S12E01. Finders Keepers. SifeR.mkv
    Format : Matroska
    Format version : Version 4 / Version 2
    File size : 413 MiB
    Duration : 21mn 34s
    Overall bit rate : 2 677 Kbps
    Encoded date : UTC 2013-10-17 11:00:07
    Writing application : mkvmerge v6.4.1 ('Omega Point') built on Sep 16 2013 22:05:10
    Writing library : libebml v1.3.0 + libmatroska v1.4.1
    Video #1
    ID : 1
    Format : AVC
    Format/Info : Advanced Video Codec
    Format profile : High@L3.1
    Format settings, CABAC : No
    Format settings, ReFrames : 2 frames
    Codec ID : V_MPEG4/ISO/AVC
    Duration : 21mn 34s
    Bit rate : 1 855 Kbps
    Width : 1 280 pixels
    Height : 718 pixels
    Display aspect ratio : 16:9
    Frame rate mode : Constant
    Frame rate : 23.976 fps
    Color space : YUV
    Chroma subsampling : 4:2:0
    Bit depth : 8 bits
    Scan type : Progressive
    Bits/(Pixel*Frame) : 0.084
    Stream size : 286 MiB (69%)
    Language : English
    Default : Yes
    Forced : No
    Color primaries : BT.709
    Transfer characteristics : BT.709
    Matrix coefficients : BT.709
    Audio #2
    ID : 2
    Format : AC-3
    Format/Info : Audio Coding 3
    Mode extension : CM (complete main)
    Format settings, Endianness : Big
    Codec ID : A_AC3
    Duration : 21mn 34s
    Bit rate mode : Constant
    Bit rate : 384 Kbps
    Channel(s) : 6 channels
    Channel positions : Front: L C R, Side: L R, LFE
    Sampling rate : 48.0 KHz
    Bit depth : 16 bits
    Compression mode : Lossy
    Stream size : 59.3 MiB (14%)
    Title : SifeR
    Language : Russian
    Default : No
    Forced : No
    Audio #3
    ID : 3
    Format : AC-3
    Format/Info : Audio Coding 3
    Mode extension : CM (complete main)
    Format settings, Endianness : Big
    Codec ID : A_AC3
    Duration : 21mn 34s
    Bit rate mode : Constant
    Bit rate : 384 Kbps
    Channel(s) : 6 channels
    Channel positions : Front: L C R, Side: L R, LFE
    Sampling rate : 48.0 KHz
    Bit depth : 16 bits
    Compression mode : Lossy
    Delay relative to video : 3ms
    Stream size : 59.3 MiB (14%)
    Title : Original
    Language : English
    Default : No
    Forced : No
    Text #4
    ID : 4
    Format : UTF-8
    Codec ID : S_TEXT/UTF8
    Codec ID/Info : UTF-8 Plain Text
    Title : Notabenoid
    Language : Russian
    Default : No
    Forced : No
    Text #5
    ID : 5
    Format : UTF-8
    Codec ID : S_TEXT/UTF8
    Codec ID/Info : UTF-8 Plain Text
    Title : Original
    Language : English
    Default : No
    Forced : No

    Внимание! Раздача ведётся путём добавления новых серий!

    Внимание! Раздача ведётся путём добавления новых серий; при каждом добавлении создётся новый торрент. Чтобы начать докачку новой серии, пользователям необходимо сделать следующее:

  • остановить скачивание,

  • удалить старый торрент у себя из клиента (старые серии удалять не надо),

  • скачать новый торрент и запустить его у себя в клиенте вместо старого, при этом указать клиенту путь в старую папку куда и должно происходить скачивание новых серий.
  • Ваш клиент при этом должен произвести хеширование (проверку) старой папки (если не производит сам - помогите ему сделать это), и будет докачивать только те серии которых у вас ещё нет. Старые серии при этом не удаляются, а продолжают раздаваться!

  • Eсли вы уже удалили старые серии, то предотвратить повторную закачку старых серий можно, отжав галочку в соответсвующих местах при запуске нового торрента.
  • [www.cybertorrent.ru].t1710.torrent 
    Торрент: Зарегистрирован [ 2018-02-16 08:44 ] · B7A3CC551C660E12722A8B89318B3291DA462C55

    Скачать .torrent

    Скачать

    13 KB

    Статус: проверено
    Скачан: 0 раз
    Размер: 1,21 GB
    Профиль [ЛС]
    Показать сообщения:    

    Текущее время: 20-Окт 21:47

    Часовой пояс: UTC ± 0



    Вы не можете начинать темы
    Вы не можете отвечать на сообщения
    Вы не можете редактировать свои сообщения
    Вы не можете удалять свои сообщения
    Вы не можете голосовать в опросах
    Вы не можете прикреплять файлы к сообщениям
    Вы можете скачивать файлы
    Torrents24.ru открытый BitTorrent Torrents24.pl открытый BitTorrent CyberTorrent.ru открытый BitTorrent BtList.ru рейтинг BitTorrent трекеров Яндекс.Метрика