Статистика раздачи
Размер:  3,62 GB   |    Зарегистрирован:  9 месяцев 25 дней   |    Скачан:  0 раз

Полного источника не было: Никогда

 
   
 
 

DR_KTO ®

Пол:
Не указан
Стаж:
9 месяцев 26 дней
Сообщений:
105

Симпсоны / Simpsons
[img=right]http://stg864. СПАМ
Страна: США
Жанр: мультсериал, комедия
Продолжительность: 00:22:00
Год выпуска: 2013
Перевод: Одноголосый закадровый - Jetvis Studio
Русские субтитры: нет
Режиссёр: Мэтт Гроунинг / Matt Groening
Релиз:
Перевод: notabenoid (1), Иван Назаров (2), Алексей Корягин (3-22).
Озвучка: Jetvis Studio
Роли озвучивал: Иван "Jet" Назаров
Описание: Симпсоны живут в вымышленном городе Спрингфилд, со своим обществом и историей. Гомер - отец семейства, который дает плохие советы и работает инспектором безопасности на атомной электростанции; Мардж - любящая мать и жена, старается сохранить спокойствие в семье; Барт - 10 летний хулиган; Лиза - философский 8-летний ребенок; и Мэгги - младенец, который общается посредством соски.

Наши релизы

Наши релизы

Внимание! Раздача ведется путем добавления новых серий

Внимание! Раздача ведётся путём добавления новых серий; при каждом добавлении создётся новый торрент. Чтобы начать докачку новой серии, пользователям необходимо сделать следующее: (1) остановить скачивание, (2) удалить старый торрент у себя из клиента (старые серии удалять не надо), (3) скачать новый торрент и запустить его у себя в клиенте вместо старого, при этом указать клиенту путь в старую папку куда и должно происходить скачивание новых серий.
Ваш клиент при этом должен произвести хеширование (проверку) старой папки (если не производит сам - помогите ему сделать это), и будет докачивать только те серии которых у вас ещё нет. Старые серии при этом не удаляются, а продолжают раздаваться!
Eсли вы уже удалили старые серии, то предотвратить повторную закачку старых серий можно, отжав галочку в соответсвующих местах при запуске нового торрента. По возможности, желательно не удалять старые серии как можно дольше чтобы релизёр не столько продолжал раздавать старые серии, а смог сконцентрироваться на новых.

Ссылка на альтернативные раздачи

http://cybertorrent.ru/tracker.php?nm=Simpsons
Качество: WEB-DLRip
Формат: AVI
Видео: 720x400, 23.976 fps, 1 635 Kbps, 0.072 bit/pixel
Аудио RUS: MP3, 48 kHz, 128 kbps, 2 ch
Аудио ENG: MP3, 48 kHz, 128 Kbps, 2 ch

Подробные технические данные

C:\ Ò î ð ð å í ò\The.Simpsons.S25.Jetvis.Studio.400p\The.Simpsons.S25E02.Jetvis.Studio.avi
General
Complete name : C:\ Ò î ð ð å í ò\The.Simpsons.S25.Jetvis.Studio.400p\The.Simpsons.S25E02.Jetvis.Studio.avi
Format : AVI
Format/Info : Audio Video Interleave
File size : 299 MiB
Duration : 21mn 52s
Overall bit rate : 1 912 Kbps
Writing application : XviD4PSP 6.0 / 53.6.0
Video #0
ID : 0
Format : MPEG-4 Visual
Format profile : AdvancedSimple@L5
Format settings, BVOP : Yes
Format settings, QPel : No
Format settings, GMC : No warppoints
Format settings, Matrix : Default (H.263)
Codec ID : XVID
Codec ID/Hint : XviD
Duration : 21mn 52s
Bit rate : 1 635 Kbps
Width : 720 pixels
Height : 400 pixels
Display aspect ratio : 16:9
Frame rate : 23.976 fps
Resolution : 24 bits
Colorimetry : 4:2:0
Scan type : Progressive
Bits/(Pixel*Frame) : 0.237
Stream size : 256 MiB (86%)
Title : H.264
Writing library : XviD 64
Audio #1
ID : 1
Format : MPEG Audio
Format version : Version 1
Format profile : Layer 3
Codec ID : 55
Codec ID/Hint : MP3
Duration : 21mn 52s
Bit rate mode : Constant
Bit rate : 128 Kbps
Channel(s) : 2 channels
Sampling rate : 48.0 KHz
Resolution : 16 bits
Stream size : 20.0 MiB (7%)
Alignment : Aligned on interleaves
Interleave, duration : 24 ms (0.58 video frame)
Title : Jetvis Studio
Writing library : LAME3.98.2
Audio #2
ID : 2
Format : MPEG Audio
Format version : Version 1
Format profile : Layer 3
Codec ID : 55
Codec ID/Hint : MP3
Duration : 21mn 52s
Bit rate mode : Constant
Bit rate : 128 Kbps
Channel(s) : 2 channels
Sampling rate : 48.0 KHz
Resolution : 16 bits
Stream size : 20.0 MiB (7%)
Alignment : Aligned on interleaves
Interleave, duration : 24 ms (0.58 video frame)
Title : Original
Writing library : LAME3.98.2

Скриншоты

11.03.2014 Обновлен торрент-файл. Добавлена 13 серия.
[www.cybertorrent.ru].t1693.torrent 
Торрент: Зарегистрирован [ 2018-02-16 08:13 ] · 2992BB0A9BD63B21F805371309373EC96E312678

Скачать .torrent

Скачать

20 KB

Статус: проверено
Скачан: 0 раз
Размер: 3,62 GB
Профиль [ЛС]
Показать сообщения:    

Текущее время: 13-Дек 16:45

Часовой пояс: UTC ± 0



Вы не можете начинать темы
Вы не можете отвечать на сообщения
Вы не можете редактировать свои сообщения
Вы не можете удалять свои сообщения
Вы не можете голосовать в опросах
Вы не можете прикреплять файлы к сообщениям
Вы можете скачивать файлы
Torrents24.ru открытый BitTorrent Torrents24.pl открытый BitTorrent CyberTorrent.ru открытый BitTorrent BtList.ru рейтинг BitTorrent трекеров Яндекс.Метрика