Статистика раздачи
Размер:  5,32 GB   |    Зарегистрирован:  9 месяцев 25 дней   |    Скачан:  0 раз

Полного источника не было: Никогда

 
   
 
 

martin ®

Пол:
Не указан
Стаж:
9 месяцев 26 дней
Сообщений:
47

Аватар: Легенда о Корре / The Legend of Korra
Страна: США
Жанр: мультфильм, фэнтези, боевик, приключения, семейный
Продолжительность: ~00:22:00
Год выпуска: 2013
Перевод: Любительский (двухголосый закадровый) [LE-Production]
Русские субтитры: нет
Режиссёр: Хоаким Дос Сантос / Joaquim Dos Santos, Ки Хьюн Рю / Ki Hyun Ryu
Роли озвучивали: Тимиркан Сиюхов и Маргарита Щелкунова
Описание: Действие сериала разворачивается через полгода после победы аватара Корры над Амоном и Уравнителями. Совет был распущен, и Объединенная Республика выбрала своего первого президента. Брат Тензина, командир Буми, ушел в отставку и перебрался на Остров Храма Воздуха. В Республиканский город пришли мир и гармония, но Аватар даже не подозревает, что Южное Племя Воды находится в огромной опасности.

Список серий:
01 - Бунтарский Дух (The Rebel Spirit)
02 - Южное сияние (The Southern Lights )
03 - Гражданские войны (Civil Wars (1))
04 - Гражданские войны (Civil Wars (2))
05 - Миротворцы (Peacekeepers)
06 - Операция "Жало" (The Sting)
07 - Истоки (Beginnings (1))
08 - Истоки (Beginnings (2))
09 - Проводник (The Guide)
10 - Новый духовный век (A New Spiritual Age)
11 - Ночь из тысячи звезд (Night of a Thousand Stars)
12 - Гармоническое сближение (Harmonic Convergence)
13 - Тьма надвигается (Darkness Falls)
14 - Свет во Тьме (Light in the Dark)
Ссылка на предыдущие и альтернативные раздачи
Семпл
Качество: WEB-DLRip
Формат: AVI
Видео: 720 x 400 (16:9), 23.976 fps, XviD build 65 ~1700 kbps avg, 0.246 bit/pixel
Аудио 1: Rus 48 kHz, AC3 Dolby Digital, 3/2 (L,C,R,l,r) + LFE ch, ~384.00 kbps avg | DVO, LE-Production |
Аудио 2: Eng 48 kHz, AC3 Dolby Digital, 2/0 (L,R) ch, ~192.00 kbps avg | Оригинал |
Субтитры: отсутствуют

Подробные технические данные

Общее
Полное имя : The.Legend.of.Korra.S02.WEB-DLRip.le-production\The.Legend.of.Korra.S02E01.Rebel.Spirit.WEB-DLRip.le-production.avi
Формат : AVI
Формат/Информация : Audio Video Interleave
Размер файла : 392 Мбайт
Продолжительность : 23 м.
Общий поток : 2290 Кбит/сек
Программа кодирования : VirtualDubMod 1.5.10.2 (build 2540/release)
Библиотека кодирования : VirtualDubMod build 2540/release
Видео
Идентификатор : 0
Формат : MPEG-4 Visual
Профиль формата : Advanced Simple@L5
Параметр BVOP формата : 1
Параметр QPel формата : Нет
Параметр GMC формата : Без точки перехода
Параметр матрицы формата : Выборочная
Идентификатор кодека : XVID
Идентификатор кодека/Подсказка : XviD
Продолжительность : 23 м.
Битрейт : 1700 Кбит/сек
Ширина : 720 пикс.
Высота : 400 пикс.
Соотношение сторон : 16:9
Частота кадров : 23,976 кадр/сек
Цветовое пространство : YUV
Подвыборка цветности : 4:2:0
Битовая глубина : 8 бит
Тип развёртки : Прогрессивная
Метод сжатия : С потерями
Бит/(Пиксели*Кадры) : 0.246
Размер потока : 291 Мбайт (74%)
Библиотека кодирования : XviD 65
Аудио #1
Идентификатор : 1
Формат : AC-3
Формат/Информация : Audio Coding 3
Расширение режима : CM (complete main)
Идентификатор кодека : 2000
Продолжительность : 23 м.
Вид битрейта : Постоянный
Битрейт : 384 Кбит/сек
Канал(ы) : 6 канала(ов)
Расположение каналов : Front: L C R, Side: L R, LFE
Частота : 48,0 КГц
Битовая глубина : 16 бит
Метод сжатия : С потерями
Размер потока : 65,8 Мбайт (17%)
Выравнивание : Разделение по промежуткам
Продолжительность промежутка : 42 мс. (1,00 видеокадр)
Время предзагрузки промежутка : 500 ms
Заголовок : Rus [LE-production]
Аудио #2
Идентификатор : 2
Формат : AC-3
Формат/Информация : Audio Coding 3
Расширение режима : CM (complete main)
Идентификатор кодека : 2000
Продолжительность : 23 м.
Вид битрейта : Постоянный
Битрейт : 192 Кбит/сек
Канал(ы) : 2 канала(ов)
Расположение каналов : Front: L R
Частота : 48,0 КГц
Битовая глубина : 16 бит
Метод сжатия : С потерями
Размер потока : 32,9 Мбайт (8%)
Выравнивание : Разделение по промежуткам
Продолжительность промежутка : 42 мс. (1,00 видеокадр)
Время предзагрузки промежутка : 500 ms
Заголовок : Eng

Скриншоты

[www.cybertorrent.ru].t1662.torrent 
Торрент: Зарегистрирован [ 2018-02-16 08:13 ] · C21D10E8BE6DCFDF5154545A6EB3BF70FD37E1A0

Скачать .torrent

Скачать

28 KB

Статус: проверено
Скачан: 0 раз
Размер: 5,32 GB
Профиль [ЛС]
Показать сообщения:    

Текущее время: 13-Дек 20:35

Часовой пояс: UTC ± 0



Вы не можете начинать темы
Вы не можете отвечать на сообщения
Вы не можете редактировать свои сообщения
Вы не можете удалять свои сообщения
Вы не можете голосовать в опросах
Вы не можете прикреплять файлы к сообщениям
Вы можете скачивать файлы
Torrents24.ru открытый BitTorrent Torrents24.pl открытый BitTorrent CyberTorrent.ru открытый BitTorrent BtList.ru рейтинг BitTorrent трекеров Яндекс.Метрика