Статистика раздачи
Размер:  2,99 GB   |    Зарегистрирован:  9 месяцев 25 дней   |    Скачан:  0 раз

Полного источника не было: Никогда

 
   
 
 

NINJA ®

Пол:
Не указан
Стаж:
9 месяцев 26 дней
Сообщений:
84

-Груффало / The Gruffalo-Дочурка Груффало / The Gruffalo's Child -Страна: Великобритания, Германия
Жанр: мультфильм, семейный
Год выпуска: 2009 + 2011
Мировая премьера: 25 декабря 2011
Российская премьера: 23 мая 2013, «Мистерия Звука»
Дата выхода DVD: 5 сентября 2013, «Мистерия Звука»
Дата выхода Blu-Ray: 5 сентября 2013, «Мистерия Звука»
Продолжительность: 00:26:17 + 00:26:29
Перевод: Профессиональный (дублированный) [Лицензия]
Субтитры: нет
Оригинальная аудиодорожка: нет-Режиссер: Йоханнес Вейланд, Уве Хеидсшоттер / Johannes Weiland, Uwe Heidschötter-Режиссер: Макс Лэнг, Джейкоб Шух / Max Lang, Jakob Schuh-Роли озвучивали: Хелена Бонем Картер, Роб Брайдон, Робби Колтрейн, Джеймс Корден, Джон Хёрт, Том Уилкинсон, Ширли Хендерсон, Фиби Гиврон-Тейлор, Сэм Льюис-Описание:
Груффало / The Gruffalo (2009).
Волшебная история про маленького мышонка, который гулял по лесу. На его пути встают три хищника, которые мечтают ее съесть — сова, лиса и змея. Маленькому мышонку предстоит использовать все свое остроумие и смекалку, чтобы выжить.

Дочурка Груффало / The Gruffalo's Child (2011).
Продолжение приключений храброго мышонка. Теперь в существование большого злобного мыша предстоит поверить дочурке Граффало.
-Бонусы: нет- -Релиз группы: -Качество: DVD5 R5
Формат: DVD-Video
Видео кодек: MPEG2
Аудио кодек: AC3
Видео: PAL 16:9 (720x576(0.737)) MPEG Video, 25,000 кадр/сек, 7637 Кбит/сек
Аудио: Russian (Dolby AC3, 6 ch) 448 Кбит/сек, 48,0 КГц-
-

DVDInfo

Title: Gruffalo.2011.DVD5
Size: 2.99 Gb ( 3 132 624,00 KBytes ) - DVD-5
Enabled regions: 1, 2, 3, 4, 5, 6, 7, 8
VTS_01 :
Play Length: 00:52:46
Video: PAL 16:9 (720x576) VBR, Auto Letterboxed
Audio:
Russian (Dolby AC3, 6 ch)
VTS_02 :
Play Length: 00:00:16
Video: PAL 16:9 (720x576) VBR, Auto Letterboxed
Audio:
Russian (Dolby AC3, 2 ch)
* Menus Information *
VIDEO_TS Menu
Video:
NTSC 4:3 (720x480) VBR
Auto Pan&Scan, Auto Letterboxed
Russian Language Unit :
Title Menu
VTS_01 Menu
Video:
PAL 16:9 (720x576) VBR
Auto Letterboxed
Audio:
Not specified (Dolby AC3, 2 ch)
Russian Language Unit :
Root Menu
VTS_02 Menu
Video:
NTSC 4:3 (720x480) VBR
Auto Pan&Scan, Auto Letterboxed
Language Unit :
Subpicture Menu
Angle menu
Language Unit :
Language Unit :
Subpicture Menu
Language Unit :
Subpicture Menu
Language Unit :
Subpicture Menu

MediaInfo

Общее
Полное имя : M:\Новинки 2013\Gruffalo.2011.DVD5\VIDEO_TS\VTS_01_1.VOB
Формат : MPEG-PS
Размер файла : 1024 Мбайт
Продолжительность : 17 м.
Режим общего битрейта : Переменный
Общий поток : 8249 Кбит/сек
Видео
Идентификатор : 224 (0xE0)
Формат : MPEG Video
Версия формата : Version 2
Профиль формата : Main@Main
Параметр BVOP формата : Да
Параметр матрицы формата : Выборочная
Параметр GOP формата : Variable
Продолжительность : 17 м.
Вид битрейта : Переменный
Битрейт : 7637 Кбит/сек
Максимальный битрейт : 8500 Кбит/сек
Ширина : 720 пикселей
Высота : 576 пикселей
Соотношение сторон : 16:9
Частота кадров : 25,000 кадров/сек
Стандарт вещания : PAL
Цветовое пространство : YUV
Субдискретизация насыщенности : 4:2:0
Битовая глубина : 8 бит
Тип развёртки : Прогрессивная
Метод сжатия : С потерями
Бит/(Пиксели*Кадры) : 0.737
TimeCode_FirstFrame : 00:00:00:00
TimeCode_Source : Group of pictures header
Размер потока : 948 Мбайт (93%)
Аудио
Идентификатор : 189 (0xBD)-128 (0x80)
Формат : AC-3
Формат/Информация : Audio Coding 3
Расширение режима : CM (complete main)
Параметр Endianness формата : Big
Режим смешивания : DVD-Video
Продолжительность : 17 м.
Вид битрейта : Постоянный
Битрейт : 448 Кбит/сек
Каналы : 6 каналов
Расположение каналов : Front: L C R, Side: L R, LFE
Частота : 48,0 КГц
Битовая глубина : 16 бит
Метод сжатия : С потерями
Размер потока : 55,6 Мбайт (5%)

Скриншоты меню

Скриншоты мультфильма

--Раздача от группы:
[www.cybertorrent.ru].t1657.torrent 
Торрент: Зарегистрирован [ 2018-02-16 08:13 ] · ED2BFBCDFF9A2CD236C5BE8CDE109EDF51D6A998

Скачать .torrent

Скачать

16 KB

Статус: проверено
Скачан: 0 раз
Размер: 2,99 GB
Профиль [ЛС]
Показать сообщения:    

Текущее время: 13-Дек 16:37

Часовой пояс: UTC ± 0



Вы не можете начинать темы
Вы не можете отвечать на сообщения
Вы не можете редактировать свои сообщения
Вы не можете удалять свои сообщения
Вы не можете голосовать в опросах
Вы не можете прикреплять файлы к сообщениям
Вы можете скачивать файлы
Torrents24.ru открытый BitTorrent Torrents24.pl открытый BitTorrent CyberTorrent.ru открытый BitTorrent BtList.ru рейтинг BitTorrent трекеров Яндекс.Метрика