BitTorrent клиенты



Грехи мадам Бовари / The Sins of Madame Bovary / I Peccati di Madame Bovary (Ганс Шотт-Шёбенгер / Hans Schott-Schoebinger) [1969, ФРГ, Италия, Драма, эротика, DVDRip] VO (ССК+) + Original Ita

Ответить на тему
 
Автор Сообщение

Keeper ®

Пол: Не указан

Стаж: 1 год

Сообщений: 499

Создавать темы 05-Фев-2018 18:33

[Цитировать]

Грехи мадам Бовари / The Sins of Madame Bovary / I Peccati di Madame Bovary
Страна: ФРГ, Италия
Жанр: Драма, эротика
Год выпуска: 1969
Продолжительность: 01:31:11
Перевод: Одноголосый закадровый Перевод ССК+
Субтитры: нет
Оригинальная аудиодорожка: итальянский
Режиссер: Ганс Шотт-Шёбенгер / Hans Schott-Schoebinger
В ролях: Эдвиж Фенек, Герхард Ридманн, Франко Рессель, Петер Карстен, Джанни Деи, Россана Ровере, Франко Борелли, Патриция Аджутори, Мария Пиа Конте, Эдда Ферронао, Луиджи Бонос, Джимми Пьяцца, Польди Варашиц
Описание: Ещё одна экранизация бессмертного романа Г.Флобера «Мадам Бовари». Эмма Бовари устала от своего мужа, сельского врача, и тоскливой провинциальной жизни в захолустье Франции. Она пускается в любовные приключения со своими многочисленными поклонниками и сорит деньгами в погоне за призраком гламура и беззаботного прожигания жизни. Однако сермяжная правда того самого скучного бытия, из оков которого Эмма пытается высвободиться, расставляет всё по местам, ведя её к суровому выбору. Единственное достоинство этого фильма – неотразимая Эдвиж Фенек в главной роли со всеми ее выпуклыми прелестями в нескольких постельных сценах.
Доп. информация:
IMDB
http://www.imdb.com/title/tt0064713/?ref_=fn_al_tt_1
Кинопоиск
http://www.kinopoisk.ru/film/133011/
Сэмпл: http://multi-up.com/844986
Качество видео: DVDRip
Формат видео: AVI
Видео: XviD, 720х304, 2,35:1, 23,976 кадра/сек, 1225 кбит/сек
Аудио: MP3, 44,1 кГц, 192 кбит/сек, 2 канала
Аудио 2: AC-3, 48,0 кГц, 256 Кбит/сек, 2 канала

MediaInfo

Общее
Полное имя : F:\РАЗДАЧИ\Madame Bovary 1969\The Sins of Madame Bovary (1969)\Грехи мадам Бовари.avi
Формат : AVI
Формат/Информация : Audio Video Interleave
Размер файла : 1,07 Гбайт
Продолжительность : 1 ч. 31 м.
Общий поток : 1687 Кбит/сек
Программа кодирования : VirtualDubMod 1.5.10.2 (build 2540/release)
Библиотека кодирования : VirtualDubMod build 2540/release
Видео
Идентификатор : 0
Формат : MPEG-4 Visual
Профиль формата : Advanced Simple@L5
Параметр BVOP формата : 1
Параметр QPel формата : Нет
Параметр GMC формата : Без точки перехода
Параметр матрицы формата : Default (MPEG)
Идентификатор кодека : XVID
Идентификатор кодека/Подсказка : XviD
Продолжительность : 1 ч. 31 м.
Битрейт : 1225 Кбит/сек
Ширина : 720 пикселей
Высота : 304 пикселя
Соотношение сторон : 2,35:1
Частота кадров : 23,976 кадра/сек
Цветовое пространство : YUV
Субдискретизация насыщенности : 4:2:0
Битовая глубина : 8 бит
Тип развёртки : Прогрессивная
Метод сжатия : С потерями
Бит/(Пиксели*Кадры) : 0.233
Размер потока : 799 Мбайт (73%)
Библиотека кодирования : XviD 1.2.1 (UTC 2008-12-04)
Аудио #1
Идентификатор : 1
Формат : MPEG Audio
Версия формата : Version 1
Профиль формата : Layer 3
Идентификатор кодека : 55
Идентификатор кодека/Подсказка : MP3
Продолжительность : 1 ч. 31 м.
Вид битрейта : Постоянный
Битрейт : 192 Кбит/сек
Каналы : 2 канала
Частота : 44,1 КГц
Метод сжатия : С потерями
Размер потока : 125 Мбайт (11%)
Выравнивание : Разделение по промежуткам
Продолжительность промежутка : 42 мс. (1,00 видеокадр)
Время предзагрузки промежутка : 500 мс.
Аудио #2
Идентификатор : 2
Формат : AC-3
Формат/Информация : Audio Coding 3
Расширение режима : CM (complete main)
Параметр Endianness формата : Big
Идентификатор кодека : 2000
Продолжительность : 1 ч. 31 м.
Вид битрейта : Постоянный
Битрейт : 256 Кбит/сек
Каналы : 2 канала
Расположение каналов : Front: L R
Частота : 48,0 КГц
Битовая глубина : 16 бит
Метод сжатия : С потерями
Размер потока : 167 Мбайт (15%)
Выравнивание : Разделение по промежуткам
Продолжительность промежутка : 42 мс. (1,00 видеокадр)
Время предзагрузки промежутка : 500 мс.

Скриншот c названием фильма

Скриншоты





ВСЕ МОИ РАЗДАЧИ
http://rutracker.org/forum/tracker.php?rid=10591342
[Профиль] [ЛС]
Показать сообщения:    
Ответить на тему

Текущее время: 23-Фев 00:07

Часовой пояс: UTC + 3



Вы не можете начинать темы
Вы не можете отвечать на сообщения
Вы не можете редактировать свои сообщения
Вы не можете удалять свои сообщения
Вы не можете голосовать в опросах
Вы не можете прикреплять файлы к сообщениям
Вы можете скачивать файлы