Статистика раздачи
Размер:  82,42 GB   |    Зарегистрирован:  9 месяцев 1 день   |    Скачан:  0 раз

Полного источника не было: Никогда

 
   
 
 

martin ®

Пол:
Не указан
Стаж:
9 месяцев 2 дня
Сообщений:
47

Аватар: Легенда о КорреThe Legend of Korra«There's a new Avatar in town!»- Страна: США
Жанр: мультфильм, фэнтези, боевик, приключения, семейный
Год выпуска: 2012 (1 сезон)
Продолжительность: 00:24:04-Перевод:
Любительский (двухголосый),
Профессиональный (многоголосый, закадровый),
Профессиональный (полное дублирование),
Субтитры: русские (Korra-Avatar), английские
Режиссер: Хоаким Дос Сантос / Joaquim Dos Santos, Ки Хьюн Рю / Ki Hyun Ryu
В ролях:
Джанет Вэрни (Korra, озвучка), Ди Брэдли Бейкер (Naga, озвучка), Дэвид Фаустино (Mako, озвучка), П.Дж. Бирн (Bolin, озвучка), Дж.К. Симмонс (Tenzin, озвучка), Джефф Беннетт (Radio Broadcaster, озвучка), Сейшелл Гэбриел (Asami Sato, озвучка), Дарси Роуз Бернс (Ikki, озвучка), Стивен Блум (Amon, озвучка), Логан Уэллс (Meelo, озвучка), Минди Стерлинг (Lin Beifong, озвучка), Лэнс Хенриксен (Lieutenant, озвучка)
Дублёры: Ольга Шорохова (Korra), Александр Гаврилин (Mako; Aang; Sokka), Валерий Сторожик (Bolin), Владимир Антоник (Tenzin; Amon; Hiroshi Sato), Мария Овчинникова (Asami Sato; Ikki; Lin Beifong; Katara), Никита Прозоровский (Lieutenant; Saikhan; Tahno), Ольга Сирина (Jinora; Toph Beifong), Людмила Шувалова-Описание: Действие сериала разворачивается примерно через 70 лет после победы аватара Аанга над Лордом Огня в последней серии мультсериала «Аватар: Легенда об Аанге». Корра, уже овладевшая магией воды, земли и огня должна обучиться последнему элементу - магии воздуха. В этом ей может помочь только сын Аанга и Катары - Тензин. Корра живёт в «Республиканском городе». Республиканский город - это место, где вместе живут люди всех наций. Героям мультсериала предстоит борьба с преступностью и с готовящимся восстанием против магов.

Список серий

1. Welcome to Republic City / Добро пожаловать в город Республика
2. A Leaf in the Wind / Лист на ветру
3. The Revelation / Откровения
4. The Voice in the Night / Голос в ночи
5. The Spirit of Competition / Дух соревнования
6. And the Winner Is... / Победителем становится...
7. The Aftermath / Последствия
8. When Extremes Meet / Когда встречаются крайности
9. Out of the Past / Послание из прошлого
10. Turning the Tides / Перелом
11. Skeletons in the Closet / Скелеты в шкафу
12. Endgame / Конец игры
-
-Дополнительная информация:
В папке Бонусы лежат, собственно, бонусы со второго диска. Это 8 аниматиков и Легенда о Куклорре - небольшое видео, в котором кукольные персонажи мультсериала в юмористическом стиле рассказывают о его создании. Аниматики это просто рабочие раскадровки и перевода на них нет за ненадобностью, а кукольные маги переведены сабами от korra-avatar.-Качество: BDRemux
Контейнер: MKV
Видео: AVC, 1920x1080 (16:9), 30407 kbps, 23,976 fps, 0,612 bpp
Аудио №1: русский / AC3 / 2.0 / 48 kHz / 192 kbps / 16 bit |Дубляж [SDI Media]|
Аудио №2: русский / AC3 / 2.0 / 48 kHz / 192 kbps / 16 bit |MVO [2x2]|
Аудио №3: русский / DTS / 5.1 / 48 kHz / 1510 kbps / 24 bit |DVO [SkyeFilmTV]|
Аудио №4: английский / DTS-HD / 5.1 / 48 kHz / 2595 kbps / 24 bit (Core: 5.1 / 48 kHz / 1510 kbps / 24 bit)
Аудио №5: английский / AC3 / 2.0 / 48 kHz / 224 kbps / 16 bit |Комментарии|
Навигация по главам: есть-

Скриншоты

Скриншоты бонусов

MediaInfo

General
Unique ID : 197427475269292020798544921085759497996 (0x9487260DB3F2B238826D3BFE7D88A70C)
Complete name : D:\The.Legend.of.Korra.2012.S01.BDRemux1080p.DUB.MVO.DVO.SUB\01. Welcome to Republic City [Добро пожаловать в Республиканский город].mkv
Format : Matroska
Format version : Version 4 / Version 2
File size : 5.85 GiB
Duration : 24mn 4s
Overall bit rate mode : Variable
Overall bit rate : 34.8 Mbps
Movie name : 01. Welcome to Republic City [Добро пожаловать в Республиканский город]
Encoded date : UTC 2013-08-30 10:44:45
Writing application : mkvmerge v6.2.0 ('Promised Land') built on Apr 28 2013 12:22:01
Writing library : libebml v1.3.0 + libmatroska v1.4.0
Video
ID : 1
Format : AVC
Format/Info : Advanced Video Codec
Format profile : High@L4.1
Format settings, CABAC : Yes
Format settings, ReFrames : 4 frames
Codec ID : V_MPEG4/ISO/AVC
Duration : 24mn 4s
Bit rate mode : Variable
Bit rate : 30.4 Mbps
Maximum bit rate : 39.0 Mbps
Width : 1 920 pixels
Height : 1 080 pixels
Display aspect ratio : 16:9
Frame rate : 23.976 fps
Color space : YUV
Chroma subsampling : 4:2:0
Bit depth : 8 bits
Scan type : Progressive
Bits/(Pixel*Frame) : 0.612
Stream size : 5.11 GiB (87%)
Default : Yes
Forced : No
Audio #1
ID : 2
Format : AC-3
Format/Info : Audio Coding 3
Mode extension : CM (complete main)
Codec ID : A_AC3
Duration : 24mn 4s
Bit rate mode : Constant
Bit rate : 192 Kbps
Channel(s) : 2 channels
Channel positions : Front: L R
Sampling rate : 48.0 KHz
Bit depth : 16 bits
Compression mode : Lossy
Stream size : 33.1 MiB (1%)
Title : DUB
Language : Russian
Default : Yes
Forced : Yes
Audio #2
ID : 3
Format : AC-3
Format/Info : Audio Coding 3
Mode extension : CM (complete main)
Codec ID : A_AC3
Duration : 24mn 4s
Bit rate mode : Constant
Bit rate : 192 Kbps
Channel(s) : 2 channels
Channel positions : Front: L R
Sampling rate : 48.0 KHz
Bit depth : 16 bits
Compression mode : Lossy
Stream size : 33.1 MiB (1%)
Title : MVO [2x2]
Language : Russian
Default : No
Forced : No
Audio #3
ID : 4
Format : DTS
Format/Info : Digital Theater Systems
Codec ID : A_DTS
Duration : 24mn 4s
Bit rate mode : Constant
Bit rate : 1 510 Kbps
Channel(s) : 6 channels
Channel positions : Front: L C R, Side: L R, LFE
Sampling rate : 48.0 KHz
Bit depth : 24 bits
Compression mode : Lossy
Stream size : 260 MiB (4%)
Title : DVO [SkyeFilmTV]
Language : Russian
Default : No
Forced : No
Audio #4
ID : 5
Format : DTS
Format/Info : Digital Theater Systems
Format profile : MA / Core
Codec ID : A_DTS
Duration : 24mn 4s
Bit rate mode : Variable
Bit rate : 1 561 Kbps / 1 510 Kbps
Channel(s) : 6 channels
Channel positions : Front: L C R, Side: L R, LFE
Sampling rate : 48.0 KHz
Bit depth : 24 bits
Compression mode : Lossless / Lossy
Title : Orig
Language : English
Default : No
Forced : No
Audio #5
ID : 6
Format : AC-3
Format/Info : Audio Coding 3
Mode extension : CM (complete main)
Codec ID : A_AC3
Duration : 24mn 4s
Bit rate mode : Constant
Bit rate : 224 Kbps
Channel(s) : 2 channels
Channel positions : Front: L R
Sampling rate : 48.0 KHz
Bit depth : 16 bits
Compression mode : Lossy
Stream size : 38.6 MiB (1%)
Title : Commentary
Language : English
Default : No
Forced : No
Text #1
ID : 7
Format : ASS
Codec ID : S_TEXT/ASS
Codec ID/Info : Advanced Sub Station Alpha
Compression mode : Lossless
Title : [Korra-Avatar]
Language : Russian
Default : No
Forced : No
Text #2
ID : 8
Format : UTF-8
Codec ID : S_TEXT/UTF8
Codec ID/Info : UTF-8 Plain Text
Title : BD
Language : English
Default : No
Forced : No
Menu
00:00:00.054 : en:00:00:00.054 / en:00:00:00.054 / en:00:00:00.054
-Все раздачи мультсериала
[www.cybertorrent.ru].t1649.torrent 
Торрент: Зарегистрирован [ 2018-02-16 08:13 ] · 5DD5D2EC26FB37F37E57A8FC854D7965F235EFF5

Скачать .torrent

Скачать

209 KB

Статус: проверено
Скачан: 0 раз
Размер: 82,42 GB
Профиль [ЛС]
Показать сообщения:    

Текущее время: 18-Ноя 00:01

Часовой пояс: UTC ± 0



Вы не можете начинать темы
Вы не можете отвечать на сообщения
Вы не можете редактировать свои сообщения
Вы не можете удалять свои сообщения
Вы не можете голосовать в опросах
Вы не можете прикреплять файлы к сообщениям
Вы можете скачивать файлы
Torrents24.ru открытый BitTorrent Torrents24.pl открытый BitTorrent CyberTorrent.ru открытый BitTorrent BtList.ru рейтинг BitTorrent трекеров Яндекс.Метрика