BitTorrent клиенты



Утиные Истории / DuckTales / Duck Tales / Сезон: 1-2 / Серии: 000-100 (Алан Заслов / Alan Zaslove) [1987-1990, Анимация, DVDRemux, DVB, SATRip, VHS] AVO (Дохалов, Живов, Иванов, Кашкин, Studio life) + Dub (ТСК, Пифагор, Невафильм) MVO (Гланц) + Eng

Ответить на тему
 
Автор Сообщение

Букашка ®

Пол: Женский

Стаж: 1 год

Сообщений: 301

Создавать темы 05-Фев-2018 18:33

[Цитировать]

- Страна: США
Жанр: Анимация, приключения
Продолжительность: ~22мин.
Год выпуска: 1987-1990
Режиссёр: Алан Заслов, Боб Хэтчкок, Джеймс Т. Уокер...

Качество: DVD-Remux [01-70,81-85] | DVB (СТС) [73-76,78,86-87,89-92,94-95,98-99] | DVB (1+1) [77,79-80,93,96-97,100] | SATRip (СТС) [71] | TVRip (Super...) [72,88]
Формат: MKV [001-100] | AVI [000]
Видео DVD-Remux: MPEG Video | 720x480 | NTSC | 29.970fps | ~4400kb/s | 0.426b/p
Видео DVB (1+1): MPEG Video | 720x576 | PAL | 25fps | ~4494kb/s | 0.433b/p
Видео SAT-Rip (СТС): DivX| 704x528 | PAL | 25fps | ~1988kb/s | 0.214b/p
Видео TV-Rip (Super...): XVID | 640x480 | PAL | 25fps | ~1437kb/s | 0.187b/p
Ссылка на предыдущие и альтернативные раздачи
Русские субтитры: нет
Английские субтитры: да [01-70,81-85]
Французские субтитры: да [01-05,07,15,26-31,33-36,41-42,46-47,49,55-56,58]-Описание:
«Утиные истории» (Duck tales) - телевизионный мультсериал, созданный компанией Уолта Диснея. Главными героями мультсериала являются переработанные классические диснеевские персонажи: Скрудж МакДак (Scrooge McDuck) и его племянники — Билли (Хьюи), Вилли (Дьюи) и Дилли (Луи). Данный сериал был вторым в своём роде (первым мультсериалом был «Приключения мишек Гамми») и впоследствии открыл дорогу таким сериалам, как «Чип и Дейл спешат на помощь» и «Чудеса на виражах». Позже был также снят другой сериал в той же вселенной — «Чёрный Плащ».
Премьера состоялась 11 сентября 1987 года мультфильмом «Сокровища золотых солнц» (англ. «The Treasures of the Golden Suns»), который был разбит впоследствии на 5 эпизодов. Последняя серия была показана 6 мая 1990 года. Всего было снято 100 серий и один полнометражный мультфильм — «Утиные истории: Заветная лампа», который был выпущен в прокат 3 августа 1990 года. Помимо этого мультфильма, предполагалось снять ещё несколько полнометражных мультфильмов по мотивам «Утиных историй», но ни один из этих проектов пока так и не реализован.
<<<подробнее>>>- Переводы и озвучки:
Аудиодорожка 01: AC3 | 48khz | 2ch | 256 kb/s | Авторский (одноголосный): | Дохалов Вартан | 23 (неполный),40,48 (неполный),51
Аудиодорожка 02: AC3 | 48khz | 2ch | 256 kb/s | Авторский (одноголосный): | Живов Юрий (ранний) | 19 (до 04:13),55,58,59 (неполный),62
Аудиодорожка 03: AC3 | 48khz | 2ch | 256 kb/s | Авторский (одноголосный): | Живов Юрий (поздний) | 11 (неполный),16,20,22,26,36,40,43,44,48,52,54,57,59-61
Аудиодорожка 04: AC3 | 48khz | 2ch | 256 kb/s | Авторский (одноголосный): | Иванов Михаил | 22,50,64
Аудиодорожка 05: AC3 | 48khz | 2ch | 256 kb/s | Авторский (одноголосный): | Кашкин "Первомайский" Александр | 42,56
Аудиодорожка 06: AC3 | 48khz | 2ch | 256 kb/s | Авторский (одноголосный): | Studio life | 44,45,57,62
Аудиодорожка 07: AC3 | 48khz | 2ch | 256 kb/s | Авторский (одноголосный): | Неизвестный №1 | 42,54,56,58 (неполный)
Аудиодорожка 08: AC3 | 48khz | 2ch | 256 kb/s | Авторский (одноголосный): | Неизвестный №2 | 44,62
Аудиодорожка 09: AC3 | 48khz | 2ch | 256 kb/s | Авторский (одноголосный): | Неизвестная №3 | 31,59
Аудиодорожка 10: AC3 | 48khz | 2ch | 192~256 kb/s | Профессиональный (дублированный): | Телевизионная Студия Кинопрограмм (ТСК) (1991-92) | 01,02 (неполный),03-11,13-17,19 (неполный),21-39,41-53,56-58,60-70,73-74,75-77,81-86,90,94,95,96 (неполный),97
Аудиодорожка 11: AC3 | 48khz | 2ch | 192 kb/s | Профессиональный (дублированный): | Пифагор (1994-95) | 71,72,74,78,87-89,91-93,98-100
Аудиодорожка 12: AC3 | 48khz | 2ch | 192kb/s | Профессиональный (дублированный): | Невафильм (2004) | 08-09,12,18,20,25,32,38,40,51,54-55,59,66-70,73,75-77,79-86,90,94-97
Аудиодорожка 13: AC3 | 48khz | 2ch | 256kb/s | Профессиональный (двухголосный): | Пётр Гланц + Татьяна Казакова | 20,54-55,59,96
Аудиодорожка 14: AC3 | 48khz | 2ch | 192 / 256 kb/s | Оригинал: | English | 01-100 (with cuts)
-

Подробные технические данные и Скриншоты

DVD-Remux

MI

Общее
Уникальный идентификатор : 226451929384185086180250389499389830728 (0xAA5D0E200C812FCA9C26079C63AE6648)
Полное имя : ...\Утиные истории\Duck tales\1x059 Master of the Djinni [ЖИВОВ-ранний (неполный)]+[ЖИВОВ-поздний]+[AVO 03]+[НЕВАФИЛЬМ'2004]+[ENG].mkv
Формат : Matroska
Размер файла : 844 Мбайт
Продолжительность : 22 м.
Общий поток : 5163 Кбит/сек
Дата кодирования : UTC 2012-07-16 23:37:13
Программа кодирования : mkvmerge v5.7.0 ('The Whirlwind') built on Jul 8 2012 20:08:51
Библиотека кодирования : libebml v1.2.3 + libmatroska v1.3.0
Видео
Идентификатор : 1
Формат : MPEG Video
Версия формата : Version 2
Профиль формата : Main@Main
Параметр BVOP формата : Нет
Параметр матрицы формата : По умолчанию
Идентификатор кодека : V_MPEG2
Идентификатор кодека/Информация: MPEG 1 or 2 Video
Продолжительность : 22 м.
Вид битрейта : Переменный
Битрейт : 3908 Кбит/сек
Номинальный битрейт : 9800 Кбит/сек
Ширина : 720 пикс.
Высота : 480 пикс.
Соотношение сторон : 4:3
Частота кадров : 29,970 кадр/сек
Стандарт вещания : NTSC
Цветовое пространство : YUV
Подвыборка цветности : 4:2:0
Битовая глубина : 8 бит
Тип развёртки : Чересстрочная
Порядок развёртки : Верхнее поле первое
Метод сжатия : С потерями
Бит/(Пиксели*Кадры) : 0.377
Размер потока : 639 Мбайт (76%)
Язык : English
Аудио #1
Идентификатор : 2
Формат : AC-3
Формат/Информация : Audio Coding 3
Расширение режима : CM (complete main)
Идентификатор кодека : A_AC3
Продолжительность : 22 м.
Вид битрейта : Постоянный
Битрейт : 256 Кбит/сек
Каналы : 2 канала
Расположение каналов : Front: L R
Частота : 48,0 КГц
Битовая глубина : 16 бит
Метод сжатия : С потерями
Размер потока : 41,8 Мбайт (5%)
Заголовок : Живов (ранний) [только с 00-11-59]
Язык : Russian
Аудио #2
Идентификатор : 3
Формат : AC-3
Формат/Информация : Audio Coding 3
Расширение режима : CM (complete main)
Идентификатор кодека : A_AC3
Продолжительность : 22 м.
Вид битрейта : Постоянный
Битрейт : 256 Кбит/сек
Каналы : 2 канала
Расположение каналов : Front: L R
Частота : 48,0 КГц
Битовая глубина : 16 бит
Метод сжатия : С потерями
Размер потока : 41,8 Мбайт (5%)
Заголовок : Живов (поздний)
Язык : Russian
Аудио #3
Идентификатор : 4
Формат : AC-3
Формат/Информация : Audio Coding 3
Расширение режима : CM (complete main)
Идентификатор кодека : A_AC3
Продолжительность : 22 м.
Вид битрейта : Постоянный
Битрейт : 256 Кбит/сек
Каналы : 2 канала
Расположение каналов : Front: L R
Частота : 48,0 КГц
Битовая глубина : 16 бит
Метод сжатия : С потерями
Размер потока : 41,8 Мбайт (5%)
Заголовок : Неизвестный 03
Язык : Russian
Аудио #4
Идентификатор : 5
Формат : AC-3
Формат/Информация : Audio Coding 3
Расширение режима : CM (complete main)
Идентификатор кодека : A_AC3
Продолжительность : 22 м.
Вид битрейта : Постоянный
Битрейт : 192 Кбит/сек
Каналы : 2 канала
Расположение каналов : Front: L R
Частота : 48,0 КГц
Битовая глубина : 16 бит
Метод сжатия : С потерями
Размер потока : 31,4 Мбайт (4%)
Заголовок : Невафильм'2004
Язык : Russian
Аудио #5
Идентификатор : 6
Формат : AC-3
Формат/Информация : Audio Coding 3
Расширение режима : CM (complete main)
Идентификатор кодека : A_AC3
Продолжительность : 22 м.
Вид битрейта : Постоянный
Битрейт : 192 Кбит/сек
Каналы : 2 канала
Расположение каналов : Front: L R
Частота : 48,0 КГц
Битовая глубина : 16 бит
Метод сжатия : С потерями
Задержка видео : 16 мс.
Размер потока : 31,4 Мбайт (4%)
Заголовок : English
Язык : English
Текст
Идентификатор : 7
Формат : VobSub
Режим смешивания : zlib
Идентификатор кодека : S_VOBSUB
Идентификатор кодека/Информация: The same subtitle format used on DVDs
Язык : English
Меню
00 : 00:00.000 : en:Chapter 01
00 : 01:00.827 : en:Chapter 02
00 : 09:04.677 : en:Chapter 03
00 : 15:07.506 : en:Chapter 04
00 : 22:18.470 : en:Chapter 05

SAT-Remux (1+1&#41;

MI

Общее
Полное имя : ...\Утиные истории\Duck tales\2x100 Attack of the Metal Mites {1+1} [ПИФАГОР'1994].mpg
Формат : MPEG-PS
Размер файла : 747 Мбайт
Продолжительность : 21 м.
Общий поток : 4781 Кбит/сек
Видео
Идентификатор : 224 (0xE0)
Формат : MPEG Video
Версия формата : Version 2
Профиль формата : Main@Main
Параметр BVOP формата : Да
Параметр матрицы формата: По умолчанию
Параметры GOP формата : M=3, N=12
Продолжительность : 21 м.
Вид битрейта : Переменный
Битрейт : 4494 Кбит/сек
Номинальный битрейт : 6500 Кбит/сек
Ширина : 720 пикс.
Высота : 576 пикс.
Соотношение сторон : 4:3
Частота кадров : 25,000 кадр/сек
Стандарт вещания : PAL
Цветовое пространство : YUV
Подвыборка цветности : 4:2:0
Битовая глубина : 8 бит
Тип развёртки : Чересстрочная
Порядок развёртки : Верхнее поле первое
Метод сжатия : С потерями
Бит/(Пиксели*Кадры) : 0.433
Размер потока : 702 Мбайт (94%)
Аудио
Идентификатор : 189 (0xBD)-128 (0x80)
Формат : AC-3
Формат/Информация : Audio Coding 3
Расширение режима : CM (complete main)
Режим смешивания : DVD-Video
Продолжительность : 21 м.
Вид битрейта : Постоянный
Битрейт : 192 Кбит/сек
Каналы : 2 канала
Расположение каналов : Front: L R
Частота : 48,0 КГц
Битовая глубина : 16 бит
Метод сжатия : С потерями
Задержка видео : -304 мс.
Размер потока : 30,0 Мбайт (4%)
Меню

Скриншоты

SAT-Rip (СТС&#41;

MI

Общее
Полное имя : ...\Утиные истории\Duck tales\2x071 Attack of the 50-foot Webby {СТС} [ПИФАГОР'1994].avi
Формат : AVI
Формат/Информация : Audio Video Interleave
Размер файла : 357 Мбайт
Продолжительность : 22 м.
Общий поток : 2191 Кбит/сек
Программа кодирования : VirtualDubMod 1.5.10.2 (build 2540/release)
Библиотека кодирования : VirtualDubMod build 2540/release
Видео
Идентификатор : 0
Формат : MPEG-4 Visual
Профиль формата : Advanced Simple@L5
Параметр BVOP формата : 1
Параметр QPel формата : Нет
Параметр GMC формата : Без точки перехода
Параметр матрицы формата : Default (H.263)
Идентификатор кодека : DX50
Идентификатор кодека/Подсказка: DivX 5
Продолжительность : 22 м.
Битрейт : 1990 Кбит/сек
Ширина : 704 пикс.
Высота : 528 пикс.
Соотношение сторон : 4:3
Частота кадров : 25,000 кадр/сек
Цветовое пространство : YUV
Подвыборка цветности : 4:2:0
Битовая глубина : 8 бит
Тип развёртки : Прогрессивная
Метод сжатия : С потерями
Бит/(Пиксели*Кадры) : 0.214
Размер потока : 324 Мбайт (91%)
Библиотека кодирования : XviD 1.2.1 (UTC 2008-12-04)
Аудио
Идентификатор : 1
Формат : AC-3
Формат/Информация : Audio Coding 3
Расширение режима : CM (complete main)
Идентификатор кодека : 2000
Продолжительность : 22 м.
Вид битрейта : Постоянный
Битрейт : 192 Кбит/сек
Каналы : 2 канала
Расположение каналов : Front: L R
Частота : 48,0 КГц
Битовая глубина : 16 бит
Метод сжатия : С потерями
Размер потока : 31,3 Мбайт (9%)
Выравнивание : Разделение по промежуткам
Продолжительность промежутка : 40 мс. (1,00 видеокадр)
Время предзагрузки промежутка : 500 ms

Скриншоты

TV-Rip

MI

Общее
Полное имя : ...\Утиные истории\Duck tales\2x072 Ducky Mountain High [ПИФАГОР'1994].avi
Формат : AVI
Формат/Информация : Audio Video Interleave
Размер файла : 229 Мбайт
Продолжительность : 20 м.
Общий поток : 1571 Кбит/сек
Программа кодирования : VirtualDubMod 1.5.4.1 (build 2178/release)
Библиотека кодирования : VirtualDub build 23350/release
Видео
Идентификатор : 0
Формат : MPEG-4 Visual
Параметр BVOP формата : 1
Параметр QPel формата : Нет
Параметр GMC формата : Без точки перехода
Параметр матрицы формата : Default (H.263)
Режим смешивания : Сжатый битовый поток
Идентификатор кодека : DX50
Идентификатор кодека/Подсказка: DivX 5
Продолжительность : 20 м.
Битрейт : 1433 Кбит/сек
Ширина : 576 пикс.
Высота : 432 пикс.
Соотношение сторон : 4:3
Частота кадров : 25,000 кадр/сек
Цветовое пространство : YUV
Подвыборка цветности : 4:2:0
Битовая глубина : 8 бит
Тип развёртки : Прогрессивная
Метод сжатия : С потерями
Бит/(Пиксели*Кадры) : 0.230
Размер потока : 209 Мбайт (91%)
Библиотека кодирования : DivX 5.0.5 (UTC 2003-04-24)
Аудио
Идентификатор : 1
Формат : MPEG Audio
Версия формата : Version 1
Профиль формата : Layer 3
Режим : Joint stereo
Расширение режима : MS Stereo
Идентификатор кодека : 55
Идентификатор кодека/Подсказка: MP3
Продолжительность : 20 м.
Вид битрейта : Постоянный
Битрейт : 128 Кбит/сек
Каналы : 2 канала
Частота : 48,0 КГц
Метод сжатия : С потерями
Размер потока : 18,7 Мбайт (8%)
Выравнивание : Разделение по промежуткам
Продолжительность промежутка : 40 мс. (1,00 видеокадр)
Время предзагрузки промежутка : 500 ms

Скриншоты

Список серий

Расшифровка тегов в названиях файлов

1x01 - Номер сезона X Номер серии
ТСК'91/92 - дублированный перевод Телевизионной Студии Кинопрограмм "Останкино" (1991-92 год)
ПИФАГОР'2004 - дублированный перевод студии "Пифагор" (1994)
НЕВАФИЛЬМ'2004 - дублированный перевод студии "Невафильм" (2004)
ГЛАНЦ+КАЗАКОВА - двухголосный перевод/озвучка Петра Гланца и Татьяны Казаковой (по заказу DisneyJazz)
[ДОХАЛОВ] - авторский перевод Вартана Дохалова
[ЖИВОВ] - авторский перевод Юрия Живова (ранний и поздний переводы)
[ИВАНОВ] - авторский перевод Михаила Иванова
[КАШКИН] - авторский перевод Александра "Первомайского" Кашкина
[Studio life] - авторский перевод соответствующей студии
[AVO 01-02] - авторский перевод неопределённых переводчиков
[AVO 03] - авторский перевод неопределённой женщины, переводившей с немецкого дубляжа
[ENG] - оригинальная (английская) звуковая дорожка
[POR] - португальская звуковая дорожка
{1+1} - исходники серий в формате DVB с телеканала 1+1
{СТС} - исходники серий в формате DVB (или Sat-rip) с телеканала СТС
Список серий и дополнительных материалов - раскрыть спойлер под кнопкой
-Сей грандиозный проект, задуманный (и ранее частично осуществлённый) мной давно, был призван собрать данный мультсериал в самом лучшем доступном качестве, которые можно достать на настоящий момент.
Исходя из этого, по-мнению автора, сия раздача является наилучшей по качеству среди всех альтернативных засчёт того, что здесь
:
за основу проекта были взяты оригинальные (американские) издания DVD в формате DVD9, которые были пересобраны в формате DVD-Remux БЕЗ какого-либо малейшего пережатия и как следствие ухудшения качества. Конкретно взято: видео, английская аудиодорожка и субтитры на все 75 серий, выпущенных официально
использовано лучшее видео для серий, невыпущенных на DVD (спасибо mrogg & utas за качественный видеоряд) (SAT-Rip и DVB с телеканала СТС), а также спасибо Stervochka-Alena (за ремуксы с 1+1)
собраны все дублированные переводы, которые мне удалось найти по возможности в лучшем качестве (ТСК, Пифагор, Невафильм)
собраны все многоголосные переводы, которые мне удалось найти по возможности в лучшем качестве (Гланц+Казакова)
собраны все авторские переводы с видеокассет (как из личных архивов многих людей, так и с общедоступных источников) (Дохалов, Живов, Иванов, Кашкин, Studio life, Неизвестные переводчики и переводчицы)-

Пропуски в аудиодорожках, которые необходимо бы заменить, если найдётся чем

1x002 [002] Wronguay in Ronguay [ТСК'91] [10:18-10:22 - пропущенный момент с фразой "дядя Скрудж", вероятно так и транслировали у нас]
1x019 [005] Sweet Duck of Youth [ТСК'91] [15:46-15:51 - пропущенный момент с одной фразой, вероятно так и транслировали у нас] - добавленые субтитры
1x019 [005] Sweet Duck of Youth [Живов (ранний)] [04:13-до конца]
1x023 Duck to the Future [Дохалов] [04:19-04:20,20:59-21:00]
1x048 Sir Gyro de Gearloose [Дохалов] [11:58]
1x054 Earthquack [Гланц+Казакова] [00:12:51-00:12:55]
2x074 The Bride Wore Stripes [English] [00:03:22-00:03:29;00:18:04-00:18:12]
2x077 Bubba's Big Brainstorm [English] [00:08:48-00:09:21]
2x078 Beaglemania [English] [00:13:27;00:21:29-00:21:33]
2x087 A Case of Mistaken Secret Identity [English] [00:08:38-00:08:47;00:10:00-00:10:09;00:14:22-00:14:23]
2x088 New Gizmo-kids on the Block [English] [00:00:59-00:01:26]
2x091 The Masked Mallard [English] [00:18:39-00:18:47]
2x094 Blue Collar Scrooge [English] [00:05:42-00:05:46]
2x096 The Land of Tra-la-la [ТСК] [01:09-01:13]
2x096 The Land of Tra-la-la [English] [00:04:40-00:04:42;00:09:22-00:09:24;00:09:48-00:09:50;00:10:29-00:10:33;00:18:36-00:19:03;00:20:39-00:20:43;00:20:55-00:21:00]
2x099 The Duck Who Knew Too Much [English] [00:07:12-00:07:22;00:07:37-00:07:43;00:07:47-00:07:57]

Отсутствующие фрагменты в российской телетрансляции (но не нуждающиеся в допереводе&#41;

1x039 [008] Dinosaur ducks {DVD} [10:25-10:33]
1x007 [039] Luck o' the Ducks {DVD} [09:13-09:18]
- Спасибо поставщикам раритетных аудиодорожек, а также всем причастным к данному проекту так или иначе 21Sepsis
ALEKS KV
DrLightman
duckling
JOHNNY
lex2085
mrogg
Multmir
Myline
Nevermind_ekb
Партизан
Raptorio Rio
sk1987
SerGoLeOne
Stervochka-Alena
utas
xfiles
и всем, чьи дорожки и раздачи были так или иначе использованы!

Обновления раздачи

XX XX 201X

[box=red,#DBEAC2]Список грядущих обновлений:
заменятся серии на более высококачественные (072,088,093,100)
заменятся дорожки ТСК'91-92 на более высококачественные и соответствующие первому показу,
включая по возможности, исполнителей песен и дикторов (1-4,7-11,13,19,21-22,24-25,27,30,32,36,38-39,42-43,50,56,58,60-61,65-70)
Перед обновлением раздачи новым торрент файлом необходимо предварительно:
1) положить сюда:

2) вот этот файл и запустить его
3) и только потом скачать новый торрент файл для обновления раздачи в ту же папку[/box]
проверить | проверить

16 августа 2013

[box=red,#DBEAC2]Список обновлений:
добавлен перевод Вартана Дохалова (023,048)
добавлен перевод (ранний) Юрия Живова (019,058)
устранён рассинхрон в дубляже (016)
Перед обновлением раздачи новым торрент файлом необходимо предварительно:
1) положить сюда (только цифры файла будут немного отличаться от скрина):

2) вот этот файл и запустить его
3) и только потом скачать новый торрент файл для обновления раздачи в ту же папку[/box]

5 апреля 2013

добавлен один из недостающих фрагментов озвучки Останкино (096)
добавлен перевод/озвучка Петра Гланца+Татьяны Казаковой (020,054-055,059,096)
добавлены английские дорожки ко всем сериям, не имеющих их (071-080,086-100), к сожалению, с пропусками (ввиду отсутствия иного материала)
добавлена полнометражная пилотная серия мультсериала "Сокровища золотых солнц" (1x000 The Treasure of the Golden Suns), к сожалению, только на португальском языке-Перед обновлением раздачи настоятельно рекомендую:
1) положить сюда:

2) вот этот файл и запустить его
3) и только потом скачать новый торрент файл для обновления раздачи в ту же папку

16 января 2013

заменена большая часть ремуксов с телеканала 1+1, (а также разных рипов) на ремуксы с телеканала СТС в целях повышения качества видео
на ряд серий добавлены переводы/озвучки телеканала Останкино (1992) и Невафильм (2004)

-
Рекомендую также ознакомиться с другими моими полными коллекциями мультсериалов



[Профиль] [ЛС]
Показать сообщения:    
Ответить на тему

Текущее время: 19-Фев 16:18

Часовой пояс: UTC + 3



Вы не можете начинать темы
Вы не можете отвечать на сообщения
Вы не можете редактировать свои сообщения
Вы не можете удалять свои сообщения
Вы не можете голосовать в опросах
Вы не можете прикреплять файлы к сообщениям
Вы можете скачивать файлы