BitTorrent клиенты



Симпсоны / The Simpsons / Сезон: 14 / Серии: 1-22 из 22 (Мэтт Гроунинг / Matt Groening) [2002-2003, комедия, HDRip] MVO (2x2) + Original

Ответить на тему
 
Автор Сообщение

FibYar ®

Пол: Не указан

Стаж: 1 год

Сообщений: 527

Создавать темы 05-Фев-2018 18:33

[Цитировать]

Симпсоны / The Simpsons
Страна: США
Жанр: мультсериал
Продолжительность: 22~00:22:00
Год выпуска: 2002-2003
Перевод: Профессиональный (многоголосый закадровый) (2х2)
Русские субтитры: нет
Режиссёр: Мэтт Гроунинг / Matt Groening
Роли озвучивали: Дэн Кастелланета, Джули Кавнер, Нэнси Картрайт, Ярдли Смит, Хэнк Азария
Описание: Мультфильм — пародия на американский уклад жизни. Cемейство Симпсонов состоит из пяти членов: папаша Гомер, мать семейства Мардж, их дочери Лиза и Мэгги и несносный подросток Барт.
Список серий:
E01 - Treehouse of Horror XIII
E02 - How I Spent My Strummer Vacation
E03 - Bart vs. Lisa vs. the Third Grade
E04 - Large Marge
E05 - Helter Shelter
E06 - The Great Louse Detective
E07 - Special Edna
E08 - The Dad Who Knew Too Little
E09 - Strong Arms of the Ma
E10 - Pray Anything
E11 - Barting Over
E12 - I'm Spelling as Fast as I Can
E13 - A Star Is Born-Again
E14 - Mr. Spritz Goes to Washington
E15 - C.E. D'oh
E16 - Scuse Me While I Miss the Sky
E17 - Three Gays of the Condo
E18 - Dude, Where's My Ranch?
E19 - Old Yeller Belly
E20 - Brake My Wife, Please
E21 - The Bart of War
E22 - Moe Baby Blues
Семпл: http://multi-up.com/747091
Качество: HDRip
Формат: AVI
Видео: XviD, 1100 Кбит/с, 720х544, 23.976 fps
Аудио: Русский - AC3, 2 ch, 192 Кбит/с, 48.0 KHz
Аудио 2: Английский AC3, 48 kHz, 2.0 ch, ~192.00 kbps
Субтитры: нет

Подробные технические данные

Simpsony.14.sezon\S14E01. Treehouse of Horror XIII.avi
Format : AVI
Format/Info : Audio Video Interleave
File size : 276 MiB
Duration : 22mn 35s
Overall bit rate : 1 707 Kbps
Writing application : XviD4PSP 6.0 / 54.29.105
Video
ID : 0
Format : MPEG-4 Visual
Format profile : Advanced Simple@L5
Format settings, BVOP : 2
Format settings, QPel : No
Format settings, GMC : No warppoints
Format settings, Matrix : Default (H.263)
Codec ID : XVID
Codec ID/Hint : XviD
Duration : 22mn 35s
Bit rate : 1 114 Kbps
Width : 720 pixels
Height : 544 pixels
Display aspect ratio : 4:3
Frame rate : 23.976 fps
Color space : YUV
Chroma subsampling : 4:2:0
Bit depth : 8 bits
Scan type : Progressive
Compression mode : Lossy
Bits/(Pixel*Frame) : 0.119
Stream size : 180 MiB (65%)
Writing library : XviD 1.2.1 (UTC 2008-12-04)
Audio #1
ID : 1
Format : AC-3
Format/Info : Audio Coding 3
Mode extension : CM (complete main)
Format settings, Endianness : Big
Codec ID : 2000
Duration : 22mn 35s
Bit rate mode : Constant
Bit rate : 192 Kbps
Channel(s) : 2 channels
Channel positions : Front: L R
Sampling rate : 48.0 KHz
Bit depth : 16 bits
Compression mode : Lossy
Stream size : 31.0 MiB (11%)
Alignment : Aligned on interleaves
Interleave, duration : 32 ms (0.77 video frame)
Audio #2
ID : 2
Format : AC-3
Format/Info : Audio Coding 3
Mode extension : CM (complete main)
Format settings, Endianness : Big
Codec ID : 2000
Duration : 22mn 35s
Bit rate mode : Constant
Bit rate : 384 Kbps
Channel(s) : 6 channels
Channel positions : Front: L C R, Side: L R, LFE
Sampling rate : 48.0 KHz
Bit depth : 16 bits
Compression mode : Lossy
Stream size : 62.0 MiB (22%)
Alignment : Aligned on interleaves
Interleave, duration : 32 ms (0.77 video frame)
Title : The.Simpsons.S14E01.720p.BDRip.Rus.Eng (1)

Скриншоты

[Профиль] [ЛС]
Показать сообщения:    
Ответить на тему

Текущее время: 22-Фев 00:01

Часовой пояс: UTC + 3



Вы не можете начинать темы
Вы не можете отвечать на сообщения
Вы не можете редактировать свои сообщения
Вы не можете удалять свои сообщения
Вы не можете голосовать в опросах
Вы не можете прикреплять файлы к сообщениям
Вы можете скачивать файлы