BitTorrent клиенты



Футурама / Futurama / Сезон: 7 / Серии: 1-26 из 26 (Мэтт Гроунинг / Matt Groening) [2012, комедия, фантастика, WEB-DLRip] VO (КетчупТВ) + Original

Ответить на тему
 
Автор Сообщение

Dream ®

Пол: Не указан

Стаж: 1 год

Сообщений: 816

Создавать темы 05-Фев-2018 18:33

[Цитировать]

Футурама / Futurama
Страна: США
Жанр: Мультфильм, комедия, фантастика
Продолжительность: 00:21:38
Год выпуска: 2012
Сезон: 7
Серии: 1-26 (из 26)
Перевод: Одноголосый закадровый
Озвучка: КетчупТВ
Русские субтитры: нет
Режиссёр: Мэтт Гроунинг / Matt Groening
Роли озвучивали: Билли Уэст, Кейти Сэгал, Джон ДиМаджио, Фил ЛаМарр, Лоурэн Том и другие
Описание: Действие мультфильма разворачивается, в основном, в будущем, а именно, в XXXI веке. Главным героем является Нью-Йоркский паренёк, Фрай, который 31 декабря 1999 года был случайно заморожен в криогенной камере, а разморожен через тысячу лет. В новом времени он знакомится с роботом Бендером, инопланетной девушкой Лилой и со своим пра-пра-пра-пра-пра-пра-пра-пра-пра-пра-племянником, профессором Хьюбертом Фарнсвордом, а потом и с Гермесом, Эмми, Зойдбергом и Нибблером. Все они работают в транспортно-экспедиционной компании «Межпланетный экспресс».
Предыдущие и альтернативные раздачи
Рейтинг:
Качество: WEB-DLRip (Исходник)
Формат: AVI
Видео: XviD, 720x400, 23.976 fps, 1240 kbps
Аудио Rus: MP3, 48 kHz, 2 ch, 128 kbps
Аудио Eng: MP3, 48 kHz, 2 ch, 128 kbps
Субтитры: отсутствуют

Скриншоты

Список серий

01. Боты и пчелы (The Bots and the Bees)
02. Прощайте, руки! (A Farewell to Arms)
03. Решение 3012 (Decision 3012)
04. Пакетоголовый вор (The Thief of Baghead)
05. Дингбат Зеппа (Zapp Dingbat)
06. Эффект мусорного масла (The Butterjunk Effect)
07. Мужик на шесть миллионов (The Six Million Dollar Mon)
08. Веселый расколбас (Fun on a Bun)
09. Охота за свободой воли (Free Will Hunting)
10. Предсмертное желание (Near-Death Wish)
11. Да здравствует Марс-Вегас (Viva Mars Vegas)
12. Лиса 31-го века (31st Century Fox)
13. Натурама (Naturama)
14. Двухмерное шоссе (2-D Blacktop)
15. Бурная жизнь Фрая и Лилы (Fry and Leela's Big Fling)
16. Д... Планетянин (T:. The Terrestrial)
17. На 40 % Ледбелли (Forty Percent Leadbelly)
18. Нечеловек-факел (The Inhuman Torch)
19. Веселье в яме субботним утром (Saturday Morning Fun Pit)
20. Калькулон 2.0 (Calculon 2.0)
21. Эсси возвращается домой (Assie Come Home)
22. Лила и гены (Leela and the Genestalk)
23. Игра тонов (Game of Tones)
24. Убийство в Планетном экспрессе (Murder on the Planet Express)
25. Вонь и зловоние (Stench and Stenchibility)
26. Тем временем (Meanwhile)

Подробные технические данные

Полное имя : D:\Video\Futurama 7 ketchuptv 400p\futurama.s07e01.web-dlrip.rus.eng.ketchuptv.avi
Формат : AVI
Формат/Информация : Audio Video Interleave
Размер файла : 233 Мбайт
Продолжительность : 21 м.
Общий поток : 1505 Кбит/сек
Программа кодирования : VirtualDubMod 1.5.4.1 (build 2178/release)
Библиотека кодирования : VirtualDubMod build 2178/release
Видео
Идентификатор : 0
Формат : MPEG-4 Visual
Профиль формата : Advanced Simple@L5
Параметр BVOP формата : 1
Параметр QPel формата : Нет
Параметр GMC формата : Без точки перехода
Параметр матрицы формата : Выборочная
Идентификатор кодека : XVID
Идентификатор кодека/Подсказка : XviD
Продолжительность : 21 м.
Битрейт : 1240 Кбит/сек
Ширина : 720 пикселей
Высота : 400 пикселей
Соотношение сторон : 16:9
Частота кадров : 23,976 кадра/сек
Цветовое пространство : YUV
Субдискретизация насыщенности : 4:2:0
Битовая глубина : 8 бит
Тип развёртки : Прогрессивная
Метод сжатия : С потерями
Бит/(Пиксели*Кадры) : 0.180
Размер потока : 192 Мбайт (82%)
Библиотека кодирования : XviD 64
Аудио #1
Идентификатор : 1
Формат : MPEG Audio
Версия формата : Version 1
Профиль формата : Layer 3
Режим : Joint stereo
Расширение режима : MS Stereo
Идентификатор кодека : 55
Идентификатор кодека/Подсказка : MP3
Продолжительность : 21 м.
Вид битрейта : Постоянный
Битрейт : 128 Кбит/сек
Каналы : 2 канала
Частота : 48,0 КГц
Метод сжатия : С потерями
Размер потока : 19,8 Мбайт (9%)
Выравнивание : Соединение по промежуткам
Продолжительность промежутка : 83 мс. (2,00 видеокадра)
Время предзагрузки промежутка : 504 мс.
Библиотека кодирования : LAME3.98r
Настройки программы : -m j -V 4 -q 2 -lowpass 17 -b 128
Аудио #2
Идентификатор : 2
Формат : MPEG Audio
Версия формата : Version 1
Профиль формата : Layer 3
Режим : Joint stereo
Расширение режима : MS Stereo
Идентификатор кодека : 55
Идентификатор кодека/Подсказка : MP3
Продолжительность : 21 м.
Вид битрейта : Постоянный
Битрейт : 128 Кбит/сек
Каналы : 2 канала
Частота : 48,0 КГц
Метод сжатия : С потерями
Размер потока : 19,8 Мбайт (9%)
Выравнивание : Соединение по промежуткам
Продолжительность промежутка : 83 мс. (2,00 видеокадра)
Время предзагрузки промежутка : 504 мс.
Библиотека кодирования : LAME3.98r
Настройки программы : -m j -V 4 -q 2 -lowpass 17 -b 128

Внимание! Раздача ведётся путём добавления новых серий

Внимание! Раздача ведётся путём добавления новых серий; при каждом добавлении создётся новый торрент. Чтобы начать докачку новой серии, пользователям необходимо сделать следующее:
(1) остановить скачивание,
(2) удалить старый торрент-файл у себя из клиента (старые серии удалять не надо),
(3) скачать новый торрент-файл из раздачи и запустить его у себя в клиенте вместо старого, при этом указать клиенту путь в старую папку куда и должно происходить скачивание новых серий.
Ваш клиент при этом должен произвести хеширование (проверку) старой папки (если не производит сам - помогите ему сделать это), и будет докачивать только те серии которых у вас ещё нет. Старые серии при этом не удаляются, а продолжают раздаваться!
Eсли вы уже посмотрели и удалили старые серии, то предотвратить повторную закачку старых серий можно, сняв галочки в соответсвующих местах при запуске нового торрента. По возможности, желательно не удалять старые серии как можно дольше чтобы релизёр не столько продолжал раздавать старые серии, а смог сконцентрироваться на новых.
[Профиль] [ЛС]
Показать сообщения:    
Ответить на тему

Текущее время: 21-Фев 23:39

Часовой пояс: UTC + 3



Вы не можете начинать темы
Вы не можете отвечать на сообщения
Вы не можете редактировать свои сообщения
Вы не можете удалять свои сообщения
Вы не можете голосовать в опросах
Вы не можете прикреплять файлы к сообщениям
Вы можете скачивать файлы