Статистика раздачи
Размер:  3,52 GB   |    Зарегистрирован:  8 месяцев 3 дня   |    Скачан:  0 раз

Полного источника не было: Никогда

 
   
 
 

Cyber ®

Пол:
Не указан
Стаж:
8 месяцев 4 дня
Сообщений:
291

Дикие лебеди
Страна: СССР
Жанр: детский мультфильм, сказка
Продолжительность: 00:57:07
Год выпуска: 1962
Перевод: Не требуется
Русские субтитры: нет
Режиссёр: Михаил Цехановский, Вера Цехановская
Роли озвучивали: Валентина Туманова, Елена Понсова, Виктор Сергачёв, Эраст Гарин, Сергей Мартинсон, Анатолий Щукин, Аскольд Беседин и др.Описание: Мультфильм по одноимённой сказке Ганса Христиана Андерсена.
Одиннадцать прекрасных принцев превращены злой мачехой в диких лебедей. Их сестра Элиза готова на всё, чтобы снять с них заклятие. Чтобы братья снова стали людьми, ей нужно сплести им кольчуги из крапивы. Но если за время работы она произнесёт хоть слово, весь труд будет напрасным. Чтобы спасти братьев, Элиза проходит через тяжёлые испытания и едва не гибнет на костре, как ведьма.
Доп. материалы: Трейлеры к другим DVD дискам серии "Märchen Klassiker" (мультфильмы и фильмы-сказки ГДР и СССР)
Доп. информация: Немецкий DVD. Добавлена русская аудиодорожка из этой раздачи - играет по умолчанию. Немецкая аудиодорожка оставлена второй, выбирается с пульта. Название и титры на немецком языке. Все остальные надписи на русском.
Качество: DVD5
Формат: DVD-video
Видео: PAL, 16:9, 720x576, ~6000 kb/s
Аудио 1: Русский, Dolby AC3, 2 ch, 192 kb/s
Аудио 2: Deutsch, Dolby AC3, 2 ch, 192 kb/s
Субтитры: отсутствуют
Отличие от DVD "Крупный план"
Релиз:

DVDInfo

Title: Die Wilden Schwaene
Size: 3.52 Gb ( 3 687 690,00 KBytes ) - DVD-5
Enabled regions: 1, 2, 3, 4, 5, 6, 7, 8
VTS_01 :
Play Length: 00:57:07+{00:57:07}
Video: PAL 16:9 (720x576) VBR, Auto Letterboxed
Audio:
Russian (Dolby AC3, 2 ch)
Deutsch (Dolby AC3, 2 ch)
VTS_02 :
Play Length: 00:01:00
Video: PAL 16:9 (720x576) VBR, Auto Letterboxed
Audio:
Deutsch (Dolby AC3, 2 ch)
VTS_03 :
Play Length: 00:02:53
Video: PAL 16:9 (720x576) VBR, Auto Letterboxed
Audio:
Deutsch (Dolby AC3, 2 ch)
VTS_04 :
Play Length: 00:02:31
Video: PAL 16:9 (720x576) VBR, Auto Letterboxed
Audio:
Deutsch (Dolby AC3, 2 ch)
VTS_05 :
Play Length: 00:02:40
Video: PAL 16:9 (720x576) VBR, Auto Letterboxed
Audio:
Deutsch (Dolby AC3, 2 ch)
* Menus Information *
VIDEO_TS Menu
Video:
NTSC 4:3 (720x480) VBR
Auto Pan&Scan, Auto Letterboxed
English Language Unit :
Title Menu
VTS_01 Menu
Video:
PAL 16:9 (720x576) VBR
Auto Letterboxed
Audio:
Not specified (Dolby AC3, 2 ch)
English Language Unit :
Root Menu
VTS_02 Menu
Video:
PAL 4:3 (720x576) VBR
English Language Unit :
Root Menu
VTS_03 Menu
Video:
PAL 4:3 (720x576) VBR
English Language Unit :
Root Menu
VTS_04 Menu
Video:
PAL 4:3 (720x576) VBR
English Language Unit :
Root Menu
VTS_05 Menu
Video:
PAL 4:3 (720x576) VBR
English Language Unit :
Root Menu

MediaInfo

Общее
Полное имя : E:\MULTFILMS\DIE WILDEN SCHWAENE\Die Wilden Schwaene\VTS_01_1.VOB
Формат : MPEG-PS
Размер файла : 1024 Мбайт
Продолжительность : 19 м.
Режим общего битрейта : Переменный
Общий поток : 7287 Кбит/сек
Видео
Идентификатор : 224 (0xE0)
Формат : MPEG Video
Версия формата : Version 2
Профиль формата : Main@Main
Параметр BVOP формата : Да
Параметр матрицы формата : Выборочная
Параметр GOP формата : Variable
Продолжительность : 19 м.
Вид битрейта : Переменный
Битрейт : 6758 Кбит/сек
Ширина : 720 пикселей
Высота : 576 пикселей
Соотношение сторон : 16:9
Частота кадров : 25,000 кадров/сек
Стандарт вещания : PAL
Цветовое пространство : YUV
Субдискретизация насыщенности : 4:2:0
Битовая глубина : 8 бит
Тип развёртки : Чересстрочная
Порядок развёртки : Верхнее поле первое
Метод сжатия : С потерями
Бит/(Пиксели*Кадры) : 0.652
Размер потока : 950 Мбайт (93%)
Аудио #1
Идентификатор : 189 (0xBD)-128 (0x80)
Формат : AC-3
Формат/Информация : Audio Coding 3
Расширение режима : CM (complete main)
Параметр Endianness формата : Big
Режим смешивания : DVD-Video
Продолжительность : 19 м.
Вид битрейта : Постоянный
Битрейт : 192 Кбит/сек
Каналы : 2 канала
Расположение каналов : Front: L R
Частота : 48,0 КГц
Битовая глубина : 16 бит
Метод сжатия : С потерями
Задержка видео : -80 мс.
Размер потока : 27,0 Мбайт (3%)
Аудио #2
Идентификатор : 189 (0xBD)-129 (0x81)
Формат : AC-3
Формат/Информация : Audio Coding 3
Расширение режима : CM (complete main)
Параметр Endianness формата : Big
Режим смешивания : DVD-Video
Продолжительность : 19 м.
Вид битрейта : Постоянный
Битрейт : 192 Кбит/сек
Каналы : 2 канала
Расположение каналов : Front: L R
Частота : 48,0 КГц
Битовая глубина : 16 бит
Метод сжатия : С потерями
Задержка видео : -80 мс.
Размер потока : 27,0 Мбайт (3%)
Меню

Скриншоты меню

Скриншоты


Используемый софт

PgcDemux (Разборка диска)
BeSweet (Распаковка звука в формат WAV)
Adobe Audition (Синхронизация аудио)
Minnetonka Audio (Конвертация звука в формат Dolby AC3)
MuxMan (Сборка диска)
DVD Remake Pro (Реавторинг DVD)
[www.cybertorrent.ru].t1628.torrent 
Торрент: Зарегистрирован [ 2018-02-16 08:13 ] · 02B8D5747723EC4610885C7D01A818FB8463D8AF

Скачать .torrent

Скачать

19 KB

Статус: проверено
Скачан: 0 раз
Размер: 3,52 GB
Профиль [ЛС]
Показать сообщения:    

Текущее время: 20-Окт 06:48

Часовой пояс: UTC ± 0



Вы не можете начинать темы
Вы не можете отвечать на сообщения
Вы не можете редактировать свои сообщения
Вы не можете удалять свои сообщения
Вы не можете голосовать в опросах
Вы не можете прикреплять файлы к сообщениям
Вы можете скачивать файлы
Torrents24.ru открытый BitTorrent Torrents24.pl открытый BitTorrent CyberTorrent.ru открытый BitTorrent BtList.ru рейтинг BitTorrent трекеров Яндекс.Метрика