BitTorrent клиенты



Аватар: Легенда о Корре / The Legend of Korra / Книга 1: Воздух / Серии: 1-12 (12) (Майкл Данте ДиМартино / Michael Dante DiMartino, Брайан Кониецко / Bryan Konietzko) [2012, приключения, фэнтези, HDTVRip] MVO (Flux-Team)

Ответить на тему
 
Автор Сообщение

Bleach ®

Пол: Не указан

Стаж: 1 год

Сообщений: 1127

Создавать темы 05-Фев-2018 18:33

[Цитировать]

Аватар: Легенда о Корре / The Legend of Korra Страна: США
Жанр: Мультфильм, приключения, фентези
Продолжительность: ~22
Год выпуска: 2012
Перевод: Любительский (многоголосый закадровый)
Русские субтитры: нет- -Перевод: ХищNIK (1-2, 5 эпизоды), Die_Otter (3-12 эпизоды)
Роли озвучивали:: NatEmiLy, Die_Otter, Ariel, Inimyo
Работа со звуком: NatEmiLy
Монтаж: NatEmiLy, Ariel-Режиссёр: Майкл Данте Димартино / Michael Dante DiMartino, Брайан Кониецко / Bryan Konietzko
Описание: Действия разворачиваются спустя 70 лет после окончания столетней войны, закончившийся битвой между аватаром Аангом и Королём-фениксом Озаем. Корра, маг воды, уже овладевшая магией земли и огня, должна обучиться последнему элементу — магии воздуха. В этом ей сможет помочь только сын Аанга и Катары — Тензин. Корра живёт в Объединённой Республике — месте, где вместе живут люди всех наций. Героям мультсериала предстоит борьба с преступностью и готовящимся восстанием против магов-Список серий:
Эпизод первый - Добро пожаловать в Республиканский город
Эпизод второй - Лист на ветру
Эпизод третий - Откровения
Эпизод четвертый - Голос в ночи
Эпизод пятый - Дух соперничества
Эпизод шестой - И победителем становится...
Эпизод седьмой - Последствия
Эпизод восьмой - Когда пределы сходятся
Эпизод девятый - Из прошлого...
Эпизод десять - Изменить ход событий
Эпизод одиннадцать - Скелеты в шкафу
Эпизод двенадцать - Конец игры-Ссылка на предыдущие и альтернативные раздачи: http://rutracker.org/forum/tracker.php?nm=аватар легенда
Семпл: http:// СПАМ-Качество: HDTVRip
Формат: AVI
Видео: MPEG-4 Visual 720x400 25 кадр/сек
Аудио: MPEG Audio 44,1 КГц, MPEG-1 Layer 3, ~256.00 kbps
Субтитры: отсутствуют

Подробные технические данные

General
Complete name : G:\Мультсериалы\Легенда о Корре\The Legend of Korra s01e02 (Flux-Team).avi
Format : AVI
Format/Info : Audio Video Interleave
File size : 245 MiB
Duration : 23mn 19s
Overall bit rate : 1 470 Kbps
Writing application : Lavf52.103.0
Video
ID : 0
Format : MPEG-4 Visual
Format profile : Advanced Simple@L5
Format settings, BVOP : Yes
Format settings, QPel : No
Format settings, GMC : No warppoints
Format settings, Matrix : Default (H.263)
Muxing mode : Packed bitstream
Codec ID : XVID
Codec ID/Hint : XviD
Duration : 23mn 19s
Bit rate : 1 202 Kbps
Width : 720 pixels
Height : 400 pixels
Display aspect ratio : 16:9
Frame rate : 25.000 fps
Resolution : 8 bits
Colorimetry : 4:2:0
Scan type : Progressive
Bits/(Pixel*Frame) : 0.167
Stream size : 201 MiB (82%)
Writing library : XviD 63
Audio
ID : 1
Format : MPEG Audio
Format version : Version 1
Format profile : Layer 3
Mode : Joint stereo
Codec ID : 55
Codec ID/Hint : MP3
Duration : 23mn 19s
Bit rate mode : Constant
Bit rate : 256 Kbps
Channel(s) : 2 channels
Sampling rate : 44.1 KHz
Stream size : 42.7 MiB (17%)
Alignment : Aligned on interleaves
Interleave, duration : 26 ms (0.65 video frame)
Writing library : LAME3.98.2

Скриншоты

[Профиль] [ЛС]
Показать сообщения:    
Ответить на тему

Текущее время: 21-Фев 23:31

Часовой пояс: UTC + 3



Вы не можете начинать темы
Вы не можете отвечать на сообщения
Вы не можете редактировать свои сообщения
Вы не можете удалять свои сообщения
Вы не можете голосовать в опросах
Вы не можете прикреплять файлы к сообщениям
Вы можете скачивать файлы