BitTorrent клиенты



Аватар: Легенда об Аанге / Avatar: The Last Airbender / Книга 2: Земля / Серии: 1-20 из 20 (Майкл Данте ДиМартино / Michael Dante DiMartino, Брайан Кониецко / Bryan Konietzko) [2006, приключения, фэнтези, 4xDVD9 (Custom) R1] Dub + Original + Fra

Ответить на тему
 
Автор Сообщение

Bleach ®

Пол: Не указан

Стаж: 1 год

Сообщений: 1127

Создавать темы 05-Фев-2018 18:33

[Цитировать]

Аватар: Легенда об Аанге Книга вторая / Avatar: The Last Airbender The book two- Страна: США
Жанр: Мультсериал, приключения, семейный, фэнтези.
Продолжительность: 22 минуты серия
Год выпуска: 2006
Перевод: Профессиональный (дублированный)
Русские субтитры: английские-Режиссёр: Michael Dante DiMartino / Майкл Данте Димартино / Bryan Konietzko / Брайан кониецко-Описание: «Аватар: Легенда об Аанге» — это история Аанга, двенадцатилетнего мальчика, который просто хотел жить обычной жизнью, но в его судьбу вмешалось появление долгожданного Аватара. Аанг призван возглавить борьбу с жестоким Народом Огня, чтобы восстановить равновесие в разобщенном войной мире. Аанг отправляется в опасное путешествие, чтобы спасти мир. Ему помогают юная, но отважная Маг Воды по имени Катара и её простодушный брат-воин по имени Сокка. Согласно легенде, Аангу надо выучить магию Воды, затем Земли, а затем Огня... В пути Аанг иногда забывает о своей нелегкой миссии, и тогда он просто радуется тому, что он обычный мальчишка-КНИГА 1
КНИГА 3-

Благодарности

xfiles,multmir-за советы в изготовлении
Vavillla-за моральную поддержку и веру в светлое будущее
-

Используемый, при изготовлении релиза, софт

PgcDemux-демукс исходного DVD
BeLight-разпаковка дорожки в WAV формат
Vegas Pro 10.0-синхронизация, сборка в АС3 дорожки
MuxMan-сборка видео
DVDReMakePro-реавторинг диска
-

Список серий

2я книга
1 Состояние Аватара (англ. The Avatar State)
2 Пещера двух влюблённых (англ. The Cave of Two Lovers)
3 Возвращение в Омашу (англ. Return to Omashu)
4 Болото (англ. The Swamp)
5 День Аватара (англ. Avatar Day)
6 Слепой бандит (англ. Blind bandit)
7 Одинокий Зуко (англ. Zuko Alone)
8 Погоня (англ. The Chase)
9 Грязная работёнка (англ. Bitter Work)
10 Библиотека (англ. The Library)
11 Пустыня (англ. The Desert)
12 Змеиный перевал (англ. The Serpent's Pass)
13 Буря (англ. The Drill)
14 Город стен и секретов (англ. City of Walls and Secrets)
15 Истории из Ба Синг Се (англ. Tales of Ba Sing Se)
16 Потерянные дни Аппы (англ. Appa's Lost Days)
17 Озеро Лаогай (англ. Lake Laogai)
18 Царь Земли (англ. The Earth King)
19 Гуру (англ. The Guru)
20 Перекрестки судьбы (англ. The Crossroads of Destiny)
-Доп. информация: Это оригинальное американское R1 издание с добавленной русской аудиодорожкой. Дорожки взяты с купленных мною дисков в интернет магазине Suzaku. Разбивку на 2ХDVD5 и раздачу запрещаю.
Что-бы выбрать русскую дорожку заходим в меню и выбираем испанскую.-Аватар
сэмпл-Качество: DVD9 (Custom)
Формат: DVD-Video
Видео: NTSC 4:3 (720x480), 29.970 fps. 7 697 Kbps. VBR
Аудио: English, AC3, 2/0 (L,R) ch, 192 kbps, Delay 0 mSec
Аудио 2: Francais, AC3, 2/0 (L,R) ch, 192 kbps, Delay 0 mSec
Аудио 3: Russian, AC3, 2/0 (L,R) ch, 192 kbps, Delay 0 mSec
Аудио 4: English, AC3, 2/0 (L,R) ch, 192 kbps, Delay 0 mSec
Субтитры: английские-

DVDInfo

disc-1

Title: Book-2-disc-1
Size: 7.90 Gb ( 8 286 964,00 KBytes ) - DVD-9
Enabled regions: 1, 2, 3, 4, 5, 6, 7, 8
VTS_01 :
Play Length: 00:00:00
Video: NTSC 16:9 (720x480) VBR, Auto Pan&Scan
Audio:
Not specified,
Not specified,
Not specified,
Not specified,
Not specified,
Not specified,
Not specified,
Not specified,
Subtitles:
Not specified
Not specified
Not specified
Not specified
Not specified
Not specified
Not specified
Not specified
Not specified
Not specified
Not specified
Not specified
VTS_02 :
Play Length: 00:00:00
Video: NTSC 4:3 (720x480) VBR
Audio:
English,
Francais,
Espanol,
VTS_03 :
Play Length: 00:24:38+00:02:05
Video: NTSC 4:3 (720x480) VBR
Audio:
English, AC3, 2/0 (L,R) ch, 192 kbps, Delay 0 mSec
VTS_04 :
Play Length: 00:24:01+00:24:01+00:24:01+00:24:01+00:23:59+02:00:01
Video: NTSC 4:3 (720x480) VBR
Audio:
English, AC3, 2/0 (L,R) ch, 192 kbps, Delay 0 mSec
Francais, AC3, 2/0 (L,R) ch, 192 kbps, Delay 0 mSec
Russian, AC3, 2/0 (L,R) ch, 192 kbps, Delay 0 mSec
VTS_05 :
Play Length: 00:00:00
Video: NTSC 4:3 (720x480) VBR
* Menus Information *
VIDEO_TS Menu
Video:
NTSC 4:3 (720x480) VBR
English Language Unit :
Title Menu
VTS_01 Menu
Video:
NTSC 4:3 (720x480) VBR
English Language Unit :
Root Menu
VTS_02 Menu
Video:
NTSC 4:3 (720x480) VBR
Audio:
Not specified (Dolby AC3, 2 ch)
English Language Unit :
Root Menu
Audio Menu
Angle menu
Chapter (PTT) Menu
VTS_03 Menu
Video:
NTSC 4:3 (720x480) VBR
Auto Pan&Scan, Auto Letterboxed
English Language Unit :
Root Menu
VTS_04 Menu
Video:
NTSC 4:3 (720x480) VBR
Auto Pan&Scan, Auto Letterboxed
English Language Unit :
Root Menu
Audio Menu
Chapter (PTT) Menu
VTS_05 Menu
Video:
NTSC 4:3 (720x480) VBR
English Language Unit :
Root Menu
Angle menu

disc-2

Title: Book-2-disc-2
Size: 7.81 Gb ( 8 191 562,00 KBytes ) - DVD-9
Enabled regions: 1, 2, 3, 4, 5, 6, 7, 8
VTS_01 :
Play Length: 00:00:00
Video: NTSC 16:9 (720x480) VBR, Auto Pan&Scan
Audio:
Not specified,
Not specified,
Not specified,
Not specified,
Not specified,
Not specified,
Not specified,
Not specified,
Subtitles:
Not specified
Not specified
Not specified
Not specified
Not specified
Not specified
Not specified
Not specified
Not specified
Not specified
Not specified
Not specified
VTS_02 :
Play Length: 00:00:00
Video: NTSC 4:3 (720x480) VBR
Audio:
English,
Francais,
Espanol,
VTS_03 :
Play Length: 00:00:00+00:03:15
Video: NTSC 4:3 (720x480) VBR
Audio:
English, AC3, 2/0 (L,R) ch, 192 kbps, Delay 0 mSec
VTS_04 :
Play Length: 02:02:40+00:24:31+00:24:30+00:24:36+00:24:32+00:24:31
Video: NTSC 4:3 (720x480) VBR
Audio:
English, AC3, 2/0 (L,R) ch, 192 kbps, Delay 0 mSec
Francais, AC3, 2/0 (L,R) ch, 192 kbps, Delay 0 mSec
Russian, AC3, 2/0 (L,R) ch, 192 kbps, Delay 0 mSec
English, AC3, 2/0 (L,R) ch, 192 kbps, Delay 0 mSec
VTS_05 :
Play Length: 00:00:00
Video: NTSC 4:3 (720x480) VBR
* Menus Information *
VIDEO_TS Menu
Video:
NTSC 4:3 (720x480) VBR
English Language Unit :
Title Menu
VTS_01 Menu
Video:
NTSC 4:3 (720x480) VBR
English Language Unit :
Root Menu
VTS_02 Menu
Video:
NTSC 4:3 (720x480) VBR
Audio:
Not specified (Dolby AC3, 2 ch)
English Language Unit :
Root Menu
Audio Menu
Angle menu
Chapter (PTT) Menu
VTS_03 Menu
Video:
NTSC 4:3 (720x480) VBR
Auto Pan&Scan, Auto Letterboxed
English Language Unit :
Root Menu
VTS_04 Menu
Video:
NTSC 4:3 (720x480) VBR
Auto Pan&Scan, Auto Letterboxed
English Language Unit :
Root Menu
Audio Menu
Chapter (PTT) Menu
VTS_05 Menu
Video:
NTSC 4:3 (720x480) VBR
English Language Unit :
Root Menu
Angle menu

disc-3

Title: Book-2-disc-3
Size: 7.82 Gb ( 8 199 642,00 KBytes ) - DVD-9
Enabled regions: 1, 2, 3, 4, 5, 6, 7, 8
VTS_01 :
Play Length: 00:00:00
Video: NTSC 16:9 (720x480) VBR, Auto Pan&Scan
Audio:
Not specified,
Not specified,
Not specified,
Not specified,
Not specified,
Not specified,
Not specified,
Not specified,
Subtitles:
Not specified
Not specified
Not specified
Not specified
Not specified
Not specified
Not specified
Not specified
Not specified
Not specified
Not specified
Not specified
VTS_02 :
Play Length: 00:00:00
Video: NTSC 4:3 (720x480) VBR
Audio:
English,
Francais,
Espanol,
VTS_03 :
Play Length: 02:02:42+00:24:30+00:24:32+00:24:31+00:24:31+00:24:37
Video: NTSC 4:3 (720x480) VBR
Audio:
English, AC3, 2/0 (L,R) ch, 192 kbps, Delay 0 mSec
Francais, AC3, 2/0 (L,R) ch, 192 kbps, Delay 0 mSec
Russian, AC3, 2/0 (L,R) ch, 192 kbps, Delay 0 mSec
English, AC3, 2/0 (L,R) ch, 192 kbps, Delay 0 mSec
VTS_04 :
Play Length: 00:00:00+00:03:15
Video: NTSC 4:3 (720x480) VBR
Audio:
English, AC3, 2/0 (L,R) ch, 192 kbps, Delay 0 mSec
VTS_05 :
Play Length: 00:00:00
Video: NTSC 4:3 (720x480) VBR
* Menus Information *
VIDEO_TS Menu
Video:
NTSC 4:3 (720x480) VBR
English Language Unit :
Title Menu
VTS_01 Menu
Video:
NTSC 4:3 (720x480) VBR
English Language Unit :
Root Menu
VTS_02 Menu
Video:
NTSC 4:3 (720x480) VBR
Audio:
Not specified (Dolby AC3, 2 ch)
English Language Unit :
Root Menu
Audio Menu
Angle menu
Chapter (PTT) Menu
VTS_03 Menu
Video:
NTSC 4:3 (720x480) VBR
Auto Pan&Scan, Auto Letterboxed
English Language Unit :
Root Menu
Audio Menu
Chapter (PTT) Menu
VTS_04 Menu
Video:
NTSC 4:3 (720x480) VBR
Auto Pan&Scan, Auto Letterboxed
English Language Unit :
Root Menu
VTS_05 Menu
Video:
NTSC 4:3 (720x480) VBR
English Language Unit :
Root Menu
Angle menu

disc-4

Title: Book-2-disc-4
Size: 7.59 Gb ( 7 955 340,00 KBytes ) - DVD-9
Enabled regions: 1, 2, 3, 4, 5, 6, 7, 8
VTS_01 :
Play Length: 00:00:00
Video: NTSC 16:9 (720x480) VBR, Auto Pan&Scan
Audio:
Not specified,
Not specified,
Not specified,
Not specified,
Not specified,
Not specified,
Not specified,
Not specified,
Subtitles:
Not specified
Not specified
Not specified
Not specified
Not specified
Not specified
Not specified
Not specified
Not specified
Not specified
Not specified
Not specified
VTS_02 :
Play Length: 00:00:00
Video: NTSC 4:3 (720x480) VBR
Audio:
English,
Francais,
Espanol,
VTS_03 :
Play Length: 00:00:00+00:03:15
Video: NTSC 4:3 (720x480) VBR
Audio:
English, AC3, 2/0 (L,R) ch, 192 kbps, Delay 0 mSec
VTS_04 :
Play Length: 02:02:37+00:24:29+00:24:32+00:24:32+00:24:32+00:24:32
Video: NTSC 4:3 (720x480) VBR
Audio:
English, AC3, 2/0 (L,R) ch, 192 kbps, Delay 0 mSec
Francais, AC3, 2/0 (L,R) ch, 192 kbps, Delay 0 mSec
Russian, AC3, 2/0 (L,R) ch, 192 kbps, Delay 0 mSec
English, AC3, 2/0 (L,R) ch, 192 kbps, Delay 0 mSec
VTS_05 :
Play Length: 00:00:00
Video: NTSC 4:3 (720x480) VBR
* Menus Information *
VIDEO_TS Menu
Video:
NTSC 4:3 (720x480) VBR
English Language Unit :
Title Menu
VTS_01 Menu
Video:
NTSC 4:3 (720x480) VBR
English Language Unit :
Root Menu
VTS_02 Menu
Video:
NTSC 4:3 (720x480) VBR
Audio:
Not specified (Dolby AC3, 2 ch)
English Language Unit :
Root Menu
Audio Menu
Angle menu
Chapter (PTT) Menu
VTS_03 Menu
Video:
NTSC 4:3 (720x480) VBR
Auto Pan&Scan, Auto Letterboxed
English Language Unit :
Root Menu
VTS_04 Menu
Video:
NTSC 4:3 (720x480) VBR
Auto Pan&Scan, Auto Letterboxed
English Language Unit :
Root Menu
Audio Menu
Chapter (PTT) Menu
VTS_05 Menu
Video:
NTSC 4:3 (720x480) VBR
English Language Unit :
Root Menu
Angle menu
-

Подробные технические данные

General
Complete name : H:\МУЛЬТСЕРИАЛЫ\АВАТАР\Avatar The Last Air Bender_(Book 2-Earth)\Book 2-Earth\Book-2-disc-1\VIDEO_TS\VIDEO_TS.VOB
Format : MPEG-PS
File size : 740 KiB
Duration : 33ms
Overall bit rate : 184 Mbps
Video
ID : 224 (0xE0)
Format : MPEG Video
Format version : Version 2
Format profile : Main@Main
Format settings, Matrix : Default
Duration : 33ms
Bit rate mode : Variable
Bit rate : 4 587 Kbps
Width : 720 pixels
Height : 480 pixels
Display aspect ratio : 4:3
Frame rate : 29.970 fps
Standard : NTSC
Colorimetry : 4:2:0
Scan type : Progressive
Scan order : Top Field First
Bits/(Pixel*Frame) : 0.443
Stream size : 18.5 KiB (2%)
General
Complete name : H:\МУЛЬТСЕРИАЛЫ\АВАТАР\Avatar The Last Air Bender_(Book 2-Earth)\Book 2-Earth\Book-2-disc-1\VIDEO_TS\VTS_01_0.VOB
Format : MPEG-PS
File size : 224 KiB
Duration : 33ms
Overall bit rate : 55.6 Mbps
Video
ID : 224 (0xE0)
Format : MPEG Video
Format version : Version 2
Format profile : Main@Main
Format settings, Matrix : Default
Duration : 33ms
Bit rate mode : Variable
Bit rate : 4 587 Kbps
Width : 720 pixels
Height : 480 pixels
Display aspect ratio : 4:3
Frame rate : 29.970 fps
Standard : NTSC
Colorimetry : 4:2:0
Scan type : Progressive
Scan order : Top Field First
Bits/(Pixel*Frame) : 0.443
Stream size : 18.5 KiB (8%)
General
Complete name : H:\МУЛЬТСЕРИАЛЫ\АВАТАР\Avatar The Last Air Bender_(Book 2-Earth)\Book 2-Earth\Book-2-disc-1\VIDEO_TS\VTS_01_1.VOB
Format : MPEG-PS
File size : 10.0 KiB
Duration : 33ms
Overall bit rate : 2 482 Kbps
Video
ID : 224 (0xE0)
Format : MPEG Video
Format version : Version 2
Format profile : Main@Main
Format settings, Matrix : Default
Duration : 33ms
Bit rate mode : Variable
Bit rate : 4 587 Kbps
Width : 720 pixels
Height : 480 pixels
Display aspect ratio : 16:9
Frame rate : 29.970 fps
Standard : NTSC
Colorimetry : 4:2:0
Scan type : Progressive
Scan order : Top Field First
Bits/(Pixel*Frame) : 0.443
Stream size : 18.5 KiB
General
Complete name : H:\МУЛЬТСЕРИАЛЫ\АВАТАР\Avatar The Last Air Bender_(Book 2-Earth)\Book 2-Earth\Book-2-disc-1\VIDEO_TS\VTS_02_0.VOB
Format : MPEG-PS
File size : 49.6 MiB
Duration : 33s 376ms
Overall bit rate : 12.5 Mbps
Video
ID : 224 (0xE0)
Format : MPEG Video
Format version : Version 2
Format profile : Main@Main
Format settings, Matrix : Default
Duration : 348ms
Bit rate mode : Variable
Bit rate : 11.8 Mbps
Nominal bit rate : 9 800 Kbps
Width : 720 pixels
Height : 480 pixels
Display aspect ratio : 4:3
Frame rate : 29.970 fps
Standard : Component
Colorimetry : 4:2:0
Scan type : Interlaced
Scan order : Top Field First
Bits/(Pixel*Frame) : 1.136
Stream size : 500 KiB (1%)
Audio
ID : 128 (0x80)
Format : AC-3
Format/Info : Audio Coding 3
Duration : 33s 376ms
Bit rate mode : Constant
Bit rate : 192 Kbps
Channel(s) : 2 channels
Channel positions : L R
Sampling rate : 48.0 KHz
Stream size : 782 KiB (2%)
Text
ID : 32 (0x20)
Format : RLE
Format/Info : Run-length encoding
General
Complete name : H:\МУЛЬТСЕРИАЛЫ\АВАТАР\Avatar The Last Air Bender_(Book 2-Earth)\Book 2-Earth\Book-2-disc-1\VIDEO_TS\VTS_03_1.VOB
Format : MPEG-PS
File size : 1 024 MiB
Duration : 17mn 52s
Overall bit rate : 8 012 Kbps
Video
ID : 224 (0xE0)
Format : MPEG Video
Format version : Version 2
Format profile : Main@Main
Format settings, Matrix : Default
Duration : 17mn 52s
Bit rate mode : Variable
Bit rate : 7 502 Kbps
Nominal bit rate : 9 800 Kbps
Width : 720 pixels
Height : 480 pixels
Display aspect ratio : 4:3
Frame rate : 29.970 fps
Standard : Component
Colorimetry : 4:2:0
Scan type : Progressive
Scan order : Top Field First
Bits/(Pixel*Frame) : 0.724
Stream size : 959 MiB (94%)
Audio
ID : 128 (0x80)
Format : AC-3
Format/Info : Audio Coding 3
Duration : 17mn 51s
Bit rate mode : Constant
Bit rate : 192 Kbps
Channel(s) : 2 channels
Channel positions : L R
Sampling rate : 48.0 KHz
Stream size : 24.5 MiB (2%)
General
Complete name : H:\МУЛЬТСЕРИАЛЫ\АВАТАР\Avatar The Last Air Bender_(Book 2-Earth)\Book 2-Earth\Book-2-disc-1\VIDEO_TS\VTS_03_2.VOB
Format : MPEG-PS
File size : 352 MiB
Duration : 6mn 47s
Overall bit rate : 7 260 Kbps
Video
ID : 224 (0xE0)
Format : MPEG Video
Format version : Version 2
Format profile : Main@Main
Format settings, Matrix : Default
Duration : 6mn 46s
Bit rate mode : Variable
Bit rate : 6 779 Kbps
Nominal bit rate : 9 800 Kbps
Width : 720 pixels
Height : 480 pixels
Display aspect ratio : 4:3
Frame rate : 29.970 fps
Standard : Component
Colorimetry : 4:2:0
Scan type : Interlaced
Scan order : Top Field First
Bits/(Pixel*Frame) : 0.655
Audio
ID : 128 (0x80)
Format : AC-3
Format/Info : Audio Coding 3
Duration : 6mn 47s
Bit rate mode : Constant
Bit rate : 192 Kbps
Channel(s) : 2 channels
Channel positions : L R
Sampling rate : 48.0 KHz
Video delay : -632ms
Stream size : 9.32 MiB (3%)
General
Complete name : H:\МУЛЬТСЕРИАЛЫ\АВАТАР\Avatar The Last Air Bender_(Book 2-Earth)\Book 2-Earth\Book-2-disc-1\VIDEO_TS\VTS_04_1.VOB
Format : MPEG-PS
File size : 1 024 MiB
Duration : 18mn 36s
Overall bit rate : 7 697 Kbps
Video
ID : 224 (0xE0)
Format : MPEG Video
Format version : Version 2
Format profile : Main@Main
Format settings, Matrix : Default
Duration : 18mn 36s
Bit rate mode : Variable
Bit rate : 6 815 Kbps
Nominal bit rate : 9 800 Kbps
Width : 720 pixels
Height : 480 pixels
Display aspect ratio : 4:3
Frame rate : 29.970 fps
Standard : Component
Colorimetry : 4:2:0
Scan type : Interlaced
Scan order : Top Field First
Bits/(Pixel*Frame) : 0.658
Stream size : 907 MiB (89%)
Audio #1
ID : 128 (0x80)
Format : AC-3
Format/Info : Audio Coding 3
Duration : 18mn 35s
Bit rate mode : Constant
Bit rate : 192 Kbps
Channel(s) : 2 channels
Channel positions : L R
Sampling rate : 48.0 KHz
Stream size : 25.5 MiB (2%)
Audio #2
ID : 129 (0x81)
Format : AC-3
Format/Info : Audio Coding 3
Duration : 18mn 35s
Bit rate mode : Constant
Bit rate : 192 Kbps
Channel(s) : 2 channels
Channel positions : L R
Sampling rate : 48.0 KHz
Stream size : 25.5 MiB (2%)
Audio #3
ID : 130 (0x82)
Format : AC-3
Format/Info : Audio Coding 3
Duration : 18mn 35s
Bit rate mode : Constant
Bit rate : 192 Kbps
Channel(s) : 2 channels
Channel positions : L R
Sampling rate : 48.0 KHz
Stream size : 25.5 MiB (2%)
Text
ID : 224 (0xE0)-DVD-1
Format : EIA-608
MuxingMode : MPEG Video / DVD-Video
MuxingMode_MoreInfo : Muxed in Video #1
General
Complete name : H:\МУЛЬТСЕРИАЛЫ\АВАТАР\Avatar The Last Air Bender_(Book 2-Earth)\Book 2-Earth\Book-2-disc-1\VIDEO_TS\VTS_04_2.VOB
Format : MPEG-PS
File size : 1 024 MiB
Duration : 19mn 58s
Overall bit rate : 7 168 Kbps
Video
ID : 224 (0xE0)
Format : MPEG Video
Format version : Version 2
Format profile : Main@Main
Format settings, Matrix : Default
Duration : 19mn 58s
Bit rate mode : Variable
Bit rate : 6 307 Kbps
Nominal bit rate : 9 800 Kbps
Width : 720 pixels
Height : 480 pixels
Display aspect ratio : 4:3
Frame rate : 29.970 fps
Standard : Component
Colorimetry : 4:2:0
Scan type : Interlaced
Scan order : Top Field First
Bits/(Pixel*Frame) : 0.609
Stream size : 901 MiB (88%)
Audio #1
ID : 128 (0x80)
Format : AC-3
Format/Info : Audio Coding 3
Duration : 19mn 58s
Bit rate mode : Constant
Bit rate : 192 Kbps
Channel(s) : 2 channels
Channel positions : L R
Sampling rate : 48.0 KHz
Video delay : -306ms
Stream size : 27.4 MiB (3%)
Audio #2
ID : 129 (0x81)
Format : AC-3
Format/Info : Audio Coding 3
Duration : 19mn 58s
Bit rate mode : Constant
Bit rate : 192 Kbps
Channel(s) : 2 channels
Channel positions : L R
Sampling rate : 48.0 KHz
Video delay : -306ms
Stream size : 27.4 MiB (3%)
Audio #3
ID : 130 (0x82)
Format : AC-3
Format/Info : Audio Coding 3
Duration : 19mn 58s
Bit rate mode : Constant
Bit rate : 192 Kbps
Channel(s) : 2 channels
Channel positions : L R
Sampling rate : 48.0 KHz
Video delay : -370ms
Stream size : 27.4 MiB (3%)
Text
ID : 224 (0xE0)-DVD-1
Format : EIA-608
MuxingMode : MPEG Video / DVD-Video
MuxingMode_MoreInfo : Muxed in Video #1
General
Complete name : H:\МУЛЬТСЕРИАЛЫ\АВАТАР\Avatar The Last Air Bender_(Book 2-Earth)\Book 2-Earth\Book-2-disc-1\VIDEO_TS\VTS_04_3.VOB
Format : MPEG-PS
File size : 1 024 MiB
Duration : 19mn 58s
Overall bit rate : 7 167 Kbps
Video
ID : 224 (0xE0)
Format : MPEG Video
Format version : Version 2
Format profile : Main@Main
Format settings, Matrix : Default
Duration : 19mn 58s
Bit rate mode : Variable
Bit rate : 6 307 Kbps
Nominal bit rate : 9 800 Kbps
Width : 720 pixels
Height : 480 pixels
Display aspect ratio : 4:3
Frame rate : 29.970 fps
Standard : Component
Colorimetry : 4:2:0
Scan type : Interlaced
Scan order : Top Field First
Bits/(Pixel*Frame) : 0.609
Stream size : 901 MiB (88%)
Audio #1
ID : 128 (0x80)
Format : AC-3
Format/Info : Audio Coding 3
Duration : 19mn 58s
Bit rate mode : Constant
Bit rate : 192 Kbps
Channel(s) : 2 channels
Channel positions : L R
Sampling rate : 48.0 KHz
Video delay : -117ms
Stream size : 27.4 MiB (3%)
Audio #2
ID : 129 (0x81)
Format : AC-3
Format/Info : Audio Coding 3
Duration : 19mn 58s
Bit rate mode : Constant
Bit rate : 192 Kbps
Channel(s) : 2 channels
Channel positions : L R
Sampling rate : 48.0 KHz
Video delay : -117ms
Stream size : 27.4 MiB (3%)
Audio #3
ID : 130 (0x82)
Format : AC-3
Format/Info : Audio Coding 3
Duration : 19mn 58s
Bit rate mode : Constant
Bit rate : 192 Kbps
Channel(s) : 2 channels
Channel positions : L R
Sampling rate : 48.0 KHz
Video delay : -117ms
Stream size : 27.4 MiB (3%)
Text
ID : 224 (0xE0)-DVD-1
Format : EIA-608
MuxingMode : MPEG Video / DVD-Video
MuxingMode_MoreInfo : Muxed in Video #1
General
Complete name : H:\МУЛЬТСЕРИАЛЫ\АВАТАР\Avatar The Last Air Bender_(Book 2-Earth)\Book 2-Earth\Book-2-disc-1\VIDEO_TS\VTS_04_4.VOB
Format : MPEG-PS
File size : 1 024 MiB
Video
ID : 224 (0xE0)
Format : MPEG Video
Format version : Version 2
Format profile : Main@Main
Format settings, Matrix : Default
Bit rate mode : Variable
Bit rate : 9 800 Kbps
Width : 720 pixels
Height : 480 pixels
Display aspect ratio : 4:3
Frame rate : 29.970 fps
Standard : Component
Colorimetry : 4:2:0
Scan type : Interlaced
Scan order : Top Field First
Bits/(Pixel*Frame) : 0.946
Audio #1
ID : 128 (0x80)
Format : AC-3
Format/Info : Audio Coding 3
Bit rate mode : Constant
Bit rate : 192 Kbps
Channel(s) : 2 channels
Channel positions : L R
Sampling rate : 48.0 KHz
Video delay : -288ms
Audio #2
ID : 129 (0x81)
Format : AC-3
Format/Info : Audio Coding 3
Bit rate mode : Constant
Bit rate : 192 Kbps
Channel(s) : 2 channels
Channel positions : L R
Sampling rate : 48.0 KHz
Video delay : -288ms
Audio #3
ID : 130 (0x82)
Format : AC-3
Format/Info : Audio Coding 3
Bit rate mode : Constant
Bit rate : 192 Kbps
Channel(s) : 2 channels
Channel positions : L R
Sampling rate : 48.0 KHz
Video delay : -288ms
General
Complete name : H:\МУЛЬТСЕРИАЛЫ\АВАТАР\Avatar The Last Air Bender_(Book 2-Earth)\Book 2-Earth\Book-2-disc-1\VIDEO_TS\VTS_04_5.VOB
Format : MPEG-PS
File size : 1 024 MiB
Duration : 18mn 3s
Overall bit rate : 7 932 Kbps
Video
ID : 224 (0xE0)
Format : MPEG Video
Format version : Version 2
Format profile : Main@Main
Format settings, Matrix : Default
Duration : 18mn 2s
Bit rate mode : Variable
Bit rate : 7 041 Kbps
Nominal bit rate : 9 800 Kbps
Width : 720 pixels
Height : 480 pixels
Display aspect ratio : 4:3
Frame rate : 29.970 fps
Standard : Component
Colorimetry : 4:2:0
Scan type : Interlaced
Scan order : Top Field First
Bits/(Pixel*Frame) : 0.680
Stream size : 909 MiB (89%)
Audio #1
ID : 128 (0x80)
Format : AC-3
Format/Info : Audio Coding 3
Duration : 18mn 3s
Bit rate mode : Constant
Bit rate : 192 Kbps
Channel(s) : 2 channels
Channel positions : L R
Sampling rate : 48.0 KHz
Video delay : -409ms
Stream size : 24.8 MiB (2%)
Audio #2
ID : 129 (0x81)
Format : AC-3
Format/Info : Audio Coding 3
Duration : 18mn 3s
Bit rate mode : Constant
Bit rate : 192 Kbps
Channel(s) : 2 channels
Channel positions : L R
Sampling rate : 48.0 KHz
Video delay : -409ms
Stream size : 24.8 MiB (2%)
Audio #3
ID : 130 (0x82)
Format : AC-3
Format/Info : Audio Coding 3
Duration : 18mn 3s
Bit rate mode : Constant
Bit rate : 192 Kbps
Channel(s) : 2 channels
Channel positions : L R
Sampling rate : 48.0 KHz
Video delay : -409ms
Stream size : 24.8 MiB (2%)
Text
ID : 224 (0xE0)-DVD-1
Format : EIA-608
MuxingMode : MPEG Video / DVD-Video
MuxingMode_MoreInfo : Muxed in Video #1
General
Complete name : H:\МУЛЬТСЕРИАЛЫ\АВАТАР\Avatar The Last Air Bender_(Book 2-Earth)\Book 2-Earth\Book-2-disc-1\VIDEO_TS\VTS_04_6.VOB
Format : MPEG-PS
File size : 1 024 MiB
Duration : 19mn 11s
Overall bit rate : 7 458 Kbps
Video
ID : 224 (0xE0)
Format : MPEG Video
Format version : Version 2
Format profile : Main@Main
Format settings, Matrix : Default
Duration : 19mn 11s
Bit rate mode : Variable
Bit rate : 6 586 Kbps
Nominal bit rate : 9 800 Kbps
Width : 720 pixels
Height : 480 pixels
Display aspect ratio : 4:3
Frame rate : 29.970 fps
Standard : Component
Colorimetry : 4:2:0
Scan type : Interlaced
Scan order : Top Field First
Bits/(Pixel*Frame) : 0.636
Stream size : 904 MiB (88%)
Audio #1
ID : 128 (0x80)
Format : AC-3
Format/Info : Audio Coding 3
Duration : 19mn 11s
Bit rate mode : Constant
Bit rate : 192 Kbps
Channel(s) : 2 channels
Channel positions : L R
Sampling rate : 48.0 KHz
Video delay : -586ms
Stream size : 26.4 MiB (3%)
Audio #2
ID : 129 (0x81)
Format : AC-3
Format/Info : Audio Coding 3
Duration : 19mn 11s
Bit rate mode : Constant
Bit rate : 192 Kbps
Channel(s) : 2 channels
Channel positions : L R
Sampling rate : 48.0 KHz
Video delay : -586ms
Stream size : 26.4 MiB (3%)
Audio #3
ID : 130 (0x82)
Format : AC-3
Format/Info : Audio Coding 3
Duration : 19mn 11s
Bit rate mode : Constant
Bit rate : 192 Kbps
Channel(s) : 2 channels
Channel positions : L R
Sampling rate : 48.0 KHz
Video delay : -586ms
Stream size : 26.4 MiB (3%)
Text
ID : 224 (0xE0)-DVD-1
Format : EIA-608
MuxingMode : MPEG Video / DVD-Video
MuxingMode_MoreInfo : Muxed in Video #1
General
Complete name : H:\МУЛЬТСЕРИАЛЫ\АВАТАР\Avatar The Last Air Bender_(Book 2-Earth)\Book 2-Earth\Book-2-disc-1\VIDEO_TS\VTS_04_7.VOB
Format : MPEG-PS
File size : 517 MiB
Duration : 9mn 13s
Overall bit rate : 7 831 Kbps
Video
ID : 224 (0xE0)
Format : MPEG Video
Format version : Version 2
Format profile : Main@Main
Format settings, Matrix : Default
Duration : 9mn 13s
Bit rate mode : Variable
Bit rate : 6 944 Kbps
Nominal bit rate : 9 800 Kbps
Width : 720 pixels
Height : 480 pixels
Display aspect ratio : 4:3
Frame rate : 29.970 fps
Standard : Component
Colorimetry : 4:2:0
Scan type : Interlaced
Scan order : Top Field First
Bits/(Pixel*Frame) : 0.670
Audio #1
ID : 128 (0x80)
Format : AC-3
Format/Info : Audio Coding 3
Duration : 9mn 13s
Bit rate mode : Constant
Bit rate : 192 Kbps
Channel(s) : 2 channels
Channel positions : L R
Sampling rate : 48.0 KHz
Video delay : -575ms
Stream size : 12.7 MiB (2%)
Audio #2
ID : 129 (0x81)
Format : AC-3
Format/Info : Audio Coding 3
Duration : 9mn 13s
Bit rate mode : Constant
Bit rate : 192 Kbps
Channel(s) : 2 channels
Channel positions : L R
Sampling rate : 48.0 KHz
Video delay : -575ms
Stream size : 12.7 MiB (2%)
Audio #3
ID : 130 (0x82)
Format : AC-3
Format/Info : Audio Coding 3
Duration : 9mn 13s
Bit rate mode : Constant
Bit rate : 192 Kbps
Channel(s) : 2 channels
Channel positions : L R
Sampling rate : 48.0 KHz
Video delay : -575ms
Stream size : 12.7 MiB (2%)
Text
ID : 224 (0xE0)-DVD-1
Format : EIA-608
MuxingMode : MPEG Video / DVD-Video
MuxingMode_MoreInfo : Muxed in Video #1
General
Complete name : H:\МУЛЬТСЕРИАЛЫ\АВАТАР\Avatar The Last Air Bender_(Book 2-Earth)\Book 2-Earth\Book-2-disc-1\VIDEO_TS\VTS_05_0.VOB
Format : MPEG-PS
File size : 4.44 MiB
Duration : 4s 137ms
Overall bit rate : 9 002 Kbps
Video
ID : 224 (0xE0)
Format : MPEG Video
Format version : Version 2
Format profile : Main@Main
Format settings, Matrix : Default
Duration : 4s 137ms
Bit rate mode : Variable
Bit rate : 8 645 Kbps
Nominal bit rate : 9 800 Kbps
Width : 720 pixels
Height : 480 pixels
Display aspect ratio : 4:3
Frame rate : 29.970 fps
Standard : Component
Colorimetry : 4:2:0
Scan type : Interlaced
Scan order : Top Field First
Bits/(Pixel*Frame) : 0.835
Stream size : 4.26 MiB (96%)
Menu
-

Скриншоты меню

disc-1

disc-2

disc-3

disc-4

-

Скриншоты



-
[Профиль] [ЛС]
Показать сообщения:    
Ответить на тему

Текущее время: 19-Фев 16:26

Часовой пояс: UTC + 3



Вы не можете начинать темы
Вы не можете отвечать на сообщения
Вы не можете редактировать свои сообщения
Вы не можете удалять свои сообщения
Вы не можете голосовать в опросах
Вы не можете прикреплять файлы к сообщениям
Вы можете скачивать файлы